<?xml version="1.0" standalone="no"?>
<!DOCTYPE svg PUBLIC "-//W3C//DTD SVG 1.1//EN" "http://www.w3.org/Graphics/SVG/1.1/DTD/svg11.dtd" >
<svg xmlns="http://www.w3.org/2000/svg" xmlns:xlink="http://www.w3.org/1999/xlink" version="1.1">
<metadata>
Created by FontForge 20170731 at Fri Jun  7 21:01:57 2019
 By Aleksey,,,
Copyright (c) 2019 by Lisa Fischbach, Jakob Runge and Nils Thomsen. All rights reserved.
</metadata>
<defs>
<font id="HalvarEng-Rg" horiz-adv-x="446" >
  <font-face 
    font-family="Halvar Eng Rg"
    font-weight="400"
    font-stretch="condensed"
    units-per-em="1000"
    panose-1="0 0 5 6 0 0 0 0 0 0"
    ascent="800"
    descent="-200"
    x-height="496"
    cap-height="656"
    bbox="-158 -212 1083 924"
    underline-thickness="50"
    underline-position="-200"
    unicode-range="U+0020-FB02"
  />
<missing-glyph horiz-adv-x="436" 
d="M57 656h103l-160 -160v103zM276 656h103l-379 -379v103zM436 599v-103l-436 -438v103zM436 277l-275 -277h-103l378 380v-103zM436 58l-56 -58h-103l159 161v-103z" />
    <glyph glyph-name=".notdef" horiz-adv-x="436" 
d="M57 656h103l-160 -160v103zM276 656h103l-379 -379v103zM436 599v-103l-436 -438v103zM436 277l-275 -277h-103l378 380v-103zM436 58l-56 -58h-103l159 161v-103z" />
    <glyph glyph-name=".null" horiz-adv-x="0" 
 />
    <glyph glyph-name="nonmarkingreturn" horiz-adv-x="333" 
 />
    <glyph glyph-name="space" unicode=" " horiz-adv-x="230" 
 />
    <glyph glyph-name="exclam" unicode="!" horiz-adv-x="254" 
d="M173 656l-4 -481h-85l-3 481h92zM84.5 4.5q-16.5 16.5 -16.5 42.5q0 27 16.5 43t42.5 16t42.5 -16t16.5 -43q0 -26 -16.5 -42.5t-42.5 -16.5t-42.5 16.5z" />
    <glyph glyph-name="quotedbl" unicode="&#x22;" horiz-adv-x="486" 
d="M188 696l-2 -255h-89l-2 255h93zM392 696l-3 -255h-89l-2 255h94z" />
    <glyph glyph-name="numbersign" unicode="#" horiz-adv-x="649" 
d="M499 433l-12 -210h90v-84h-95l-8 -139h-87l8 139h-164l-8 -139h-85l8 139h-94v84h99l11 210h-91v84h96l8 139h87l-9 -139h165l8 139h86l-8 -139h93v-84h-98zM401 223l13 211h-166l-13 -211h166z" />
    <glyph glyph-name="dollar" unicode="$" horiz-adv-x="490" 
d="M436 199v-17q0 -63 -39 -106t-105 -55v-81h-92v80q-69 11 -107.5 55.5t-38.5 113.5v25h89v-25q0 -42 27 -66t74 -24q46 0 73 21.5t27 56.5v11q0 32 -20 55t-71 43l-55 22q-69 27 -101.5 66t-32.5 94v17q0 57 37 98t99 52v82h92v-82q65 -11 101.5 -52t36.5 -105v-25h-89
v21q0 39 -25.5 61t-69.5 22q-40 0 -66 -20.5t-26 -51.5v-11q0 -29 18 -48.5t68 -39.5l55 -22q141 -55 141 -165z" />
    <glyph glyph-name="percent" unicode="%" horiz-adv-x="726" 
d="M68 378q-34 33 -34 92v69q0 59 34.5 92t94.5 33t94 -33t34 -92v-69q0 -59 -33.5 -92t-94.5 -33t-95 33zM221 478v53q0 31 -15 47.5t-43 16.5t-43 -17t-15 -47v-53q0 -63 58 -63t58 63zM468 26q-34 33 -34 92v69q0 59 34.5 92t94.5 33t94 -33t34 -92v-69q0 -59 -33.5 -92
t-94.5 -33t-95 33zM621 126v53q0 31 -15 47.5t-43 16.5t-43 -17t-15 -47v-53q0 -63 58 -63t58 63zM546 656h78v-14l-444 -642h-78v13z" />
    <glyph glyph-name="ampersand" unicode="&#x26;" horiz-adv-x="539" 
d="M525 350l-118 -201l108 -135v-14h-100l-58 72q-34 -44 -72 -64t-88 -20q-74 0 -119.5 42.5t-45.5 110.5v21q0 45 25 86t79 86l7 6l-20 24q-33 40 -46.5 72.5t-13.5 69.5v20q0 63 45 102.5t117 39.5q70 0 114 -39.5t44 -102.5v-20q0 -41 -20.5 -76.5t-70.5 -78.5l-28 -25
l86 -106l83 144h92v-14zM151 506q0 -20 9 -41t30 -47l22 -27l22 19q37 32 49.5 51t12.5 45v12q0 31 -19.5 49t-53.5 18q-33 0 -52.5 -18t-19.5 -49v-12zM256 85.5q21 14.5 47 54.5l-109 135l-5 -4q-39 -33 -53.5 -57t-14.5 -54v-12q0 -35 23 -56t60 -21q31 0 52 14.5z" />
    <glyph glyph-name="quotesingle" unicode="'" horiz-adv-x="284" 
d="M190 696l-3 -255h-90l-2 255h95z" />
    <glyph glyph-name="parenleft" unicode="(" horiz-adv-x="326" 
d="M131.5 -2q-57.5 65 -57.5 170v320q0 105 57.5 170t158.5 68v-82q-61 -3 -94 -44.5t-33 -113.5v-316q0 -72 33.5 -113.5t93.5 -44.5v-82q-101 3 -158.5 68z" />
    <glyph glyph-name="parenright" unicode=")" horiz-adv-x="326" 
d="M194.5 658.5q57.5 -64.5 57.5 -170.5v-320q0 -105 -57.5 -170t-158.5 -68v82q61 3 94 44.5t33 113.5v316q0 72 -33.5 113.5t-93.5 44.5v82q101 -3 158.5 -67.5z" />
    <glyph glyph-name="asterisk" unicode="*" horiz-adv-x="385" 
d="M258 524l92 -50l-38 -60l-89 60l5 -108h-72l5 107l-88 -59l-38 60l92 50l-92 52l38 60l88 -59l-5 106h72l-5 -107l89 60l38 -60z" />
    <glyph glyph-name="plus" unicode="+" horiz-adv-x="490" 
d="M448 286h-161v-170h-84v170h-161v84h161v171h85v-171h160v-84z" />
    <glyph glyph-name="comma" unicode="," horiz-adv-x="284" 
d="M211 122v-13l-72 -242h-82l52 255h102z" />
    <glyph glyph-name="hyphen" unicode="-" horiz-adv-x="334" 
d="M274 318v-82h-215v82h215z" />
    <glyph glyph-name="period" unicode="." horiz-adv-x="284" 
d="M100 5q-17 17 -17 42q0 26 16.5 42.5t42.5 16.5t42.5 -16.5t16.5 -42.5t-16.5 -42.5t-42.5 -16.5q-25 0 -42 17z" />
    <glyph glyph-name="slash" unicode="/" horiz-adv-x="485" 
d="M330 722h84v-15l-259 -773h-84v15z" />
    <glyph glyph-name="zero" unicode="0" horiz-adv-x="488" 
d="M109.5 35.5q-50.5 47.5 -50.5 126.5v331q0 79 50.5 126.5t134.5 47.5q85 0 135 -47.5t50 -126.5v-331q0 -79 -50 -126.5t-135 -47.5q-84 0 -134.5 47.5zM312 99q25 26 25 70v316q0 44 -25 70.5t-68 26.5q-42 0 -67.5 -26t-25.5 -71v-316q0 -44 25.5 -70t67.5 -26
q43 0 68 26z" />
    <glyph glyph-name="one" unicode="1" horiz-adv-x="318" 
d="M244 0h-93v517q-33 -13 -68 -13h-61v85h60q33 0 51 17.5t18 49.5h93v-656z" />
    <glyph glyph-name="two" unicode="2" horiz-adv-x="428" 
d="M396 85v-85h-349v85l135 170q63 80 86.5 127.5t23.5 98.5v10q0 44 -22 68t-61 24q-41 0 -62 -24t-21 -69v-27h-91v27q0 85 45.5 131.5t129.5 46.5q82 0 127.5 -46t45.5 -128v-10q0 -64 -28 -124t-103 -153l-98 -122h242z" />
    <glyph glyph-name="three" unicode="3" horiz-adv-x="436" 
d="M349.5 352.5q41.5 -41.5 41.5 -109.5v-85q0 -76 -50 -123t-131 -47q-84 0 -132.5 46t-48.5 126v28h91v-26q0 -41 24.5 -65t64.5 -24q41 0 65.5 25.5t24.5 68.5v62q0 42 -23.5 65t-72.5 23h-81v73l155 181h-235v85h345v-85l-150 -172q71 -5 112.5 -46.5z" />
    <glyph glyph-name="four" unicode="4" horiz-adv-x="501" 
d="M472 142h-70v-142h-92v142h-267v85q38 103 61.5 204.5t36.5 224.5h90v-14q-24 -221 -93 -415h172v313h92v-313h70v-85z" />
    <glyph glyph-name="five" unicode="5" horiz-adv-x="456" 
d="M374 371.5q45 -43.5 45 -119.5v-90q0 -83 -47.5 -128.5t-134.5 -45.5q-88 0 -134.5 45t-46.5 130v10h90v-10q0 -44 23.5 -67t66.5 -23q44 0 68 24t24 68v71q0 45 -24.5 70.5t-67.5 25.5q-36 0 -58.5 -20t-25.5 -55h-92l20 399h318v-85h-236l-8 -178q41 22 95 22
q80 0 125 -43.5z" />
    <glyph glyph-name="six" unicode="6" horiz-adv-x="475" 
d="M338 481v10q0 44 -24 68.5t-68 24.5q-45 0 -70 -24.5t-25 -66.5v-114q43 31 104 31q79 0 127.5 -44t48.5 -119v-83q0 -83 -49 -129.5t-136 -46.5t-137 48t-50 130v324q0 82 50 130t137 48q88 0 136.5 -46.5t48.5 -130.5v-10h-93zM189.5 313q-24.5 -13 -38.5 -36v-110
q0 -44 25.5 -69.5t69.5 -25.5q43 0 67.5 25.5t24.5 69.5v70q0 40 -25.5 64.5t-67.5 24.5q-31 0 -55.5 -13z" />
    <glyph glyph-name="seven" unicode="7" horiz-adv-x="380" 
d="M350 656v-85q-69 -143 -109.5 -291t-40.5 -256v-24h-91v24q0 109 40.5 254.5t112.5 292.5h-251v85h339z" />
    <glyph glyph-name="eight" unicode="8" horiz-adv-x="471" 
d="M403 283q19 -33 19 -76v-57q0 -74 -51 -118t-135 -44q-85 0 -136 43.5t-51 118.5v57q0 43 19.5 76t55.5 53q-33 20 -51 52.5t-18 73.5v47q0 74 49 116.5t132 42.5t131.5 -42.5t48.5 -116.5v-47q0 -42 -17.5 -74t-50.5 -52q36 -20 55 -53zM143 460q0 -85 93 -85
q92 0 92 85v42q0 41 -23.5 62.5t-68.5 21.5t-69 -21.5t-24 -62.5v-42zM333 207q0 40 -26 62.5t-71 22.5t-71.5 -23t-26.5 -62v-50q0 -40 27 -63t71 -23q43 0 70 23t27 63v50z" />
    <glyph glyph-name="nine" unicode="9" horiz-adv-x="475" 
d="M366 620q50 -48 50 -130v-324q0 -82 -50 -130t-137 -48q-88 0 -136.5 46.5t-48.5 130.5v10h93v-10q0 -44 24 -68.5t68 -24.5q45 0 70 24.5t25 66.5v114q-43 -31 -104 -31q-79 0 -127.5 44t-48.5 119v83q0 83 49 129.5t136 46.5t137 -48zM285.5 343q24.5 13 38.5 36v110
q0 44 -25.5 69.5t-69.5 25.5q-43 0 -67.5 -25.5t-24.5 -69.5v-70q0 -40 25.5 -64.5t67.5 -24.5q31 0 55.5 13z" />
    <glyph glyph-name="colon" unicode=":" horiz-adv-x="324" 
d="M120 5q-17 17 -17 42q0 26 16.5 42.5t42.5 16.5t42.5 -16.5t16.5 -42.5t-16.5 -42.5t-42.5 -16.5q-25 0 -42 17zM120 380q-17 17 -17 42q0 26 16.5 42.5t42.5 16.5t42.5 -16.5t16.5 -42.5t-16.5 -42.5t-42.5 -16.5q-25 0 -42 17z" />
    <glyph glyph-name="semicolon" unicode=";" horiz-adv-x="324" 
d="M221 122v-13l-72 -242h-82l52 255h102zM120 380q-17 17 -17 42q0 26 16.5 42.5t42.5 16.5t42.5 -16.5t16.5 -42.5t-16.5 -42.5t-42.5 -16.5q-25 0 -42 17z" />
    <glyph glyph-name="less" unicode="&#x3c;" horiz-adv-x="490" 
d="M433 443l-285 -115l285 -115v-85h-13l-377 151v98l377 151h13v-85z" />
    <glyph glyph-name="equal" unicode="=" horiz-adv-x="490" 
d="M437 481v-85h-385v85h385zM437 260v-85h-385v85h385z" />
    <glyph glyph-name="greater" unicode="&#x3e;" horiz-adv-x="490" 
d="M447 377v-98l-377 -151h-13v85l285 115l-285 115v85h13z" />
    <glyph glyph-name="question" unicode="?" horiz-adv-x="421" 
d="M172 310.5q17 34.5 64 84.5q29 31 40 52.5t11 48.5v12q0 34 -21.5 55.5t-56.5 21.5q-39 0 -59.5 -21.5t-20.5 -61.5v-43h-88v44q0 79 44 122t126 43q76 0 120.5 -41.5t44.5 -112.5v-18q0 -40 -14.5 -70.5t-54.5 -73.5q-41 -45 -53.5 -70t-12.5 -61v-46h-86v53
q0 48 17 82.5zM157 5q-17 17 -17 42q0 26 16.5 42.5t42.5 16.5t42.5 -16t16.5 -43q0 -26 -16.5 -42.5t-42.5 -16.5q-25 0 -42 17z" />
    <glyph glyph-name="at" unicode="@" horiz-adv-x="818" 
d="M670.5 581.5q92.5 -86.5 92.5 -242.5v-162q0 -65 -36.5 -103t-100.5 -38q-38 0 -68 12.5t-47 35.5q-38 -53 -115 -53q-68 0 -112 43.5t-44 111.5v142q0 45 20.5 80.5t56 55.5t79.5 20q63 0 102 -36l3 25h71v-307q0 -25 14.5 -39t40.5 -14t40.5 17t14.5 50v163
q0 122 -68 184.5t-199 62.5q-135 0 -204.5 -64t-69.5 -188v-162q0 -117 65.5 -179.5t187.5 -62.5h132v-75h-132q-102 0 -177.5 38.5t-116.5 109.5t-41 168v164q0 157 92 243t260 86q167 0 259.5 -86.5zM454.5 121q20.5 12 34.5 32v208q-14 21 -34.5 33t-44.5 12
q-40 0 -63.5 -25t-23.5 -69v-111q0 -43 23.5 -67.5t63.5 -24.5q24 0 44.5 12z" />
    <glyph glyph-name="A" unicode="A" horiz-adv-x="499" 
d="M473 14v-14h-94l-36 146h-186l-36 -146h-94v14l169 642h109zM322 229l-72 294l-72 -294h144z" />
    <glyph glyph-name="B" unicode="B" horiz-adv-x="483" 
d="M419.5 277.5q23.5 -37.5 23.5 -90.5v-20q0 -78 -48.5 -122.5t-133.5 -44.5h-201v656h190q86 0 134 -42.5t48 -119.5v-20q0 -50 -20.5 -85.5t-58.5 -54.5q43 -19 66.5 -56.5zM153 572v-198h88q48 0 73.5 23.5t25.5 68.5v18q0 88 -100 88h-87zM351 195q0 46 -26 71t-73 25
h-99v-207h97q50 0 75.5 23.5t25.5 69.5v18z" />
    <glyph glyph-name="C" unicode="C" horiz-adv-x="502" 
d="M112 38.5q-53 50.5 -53 138.5v302q0 88 53 138.5t145 50.5q98 0 147.5 -52.5t49.5 -155.5v-60h-92v60q0 123 -106 123q-50 0 -77.5 -29t-27.5 -82v-289q0 -53 27.5 -81.5t77.5 -28.5q106 0 106 119v62h92v-62q0 -100 -50 -152t-147 -52q-92 0 -145 50.5z" />
    <glyph glyph-name="D" unicode="D" horiz-adv-x="497" 
d="M238 656q95 0 147.5 -51t52.5 -143v-269q0 -91 -53 -142t-147 -51h-178v656h178zM319 114q27 29 27 84v260q0 55 -27 84t-78 29h-88v-486h88q51 0 78 29z" />
    <glyph glyph-name="E" unicode="E" horiz-adv-x="429" 
d="M400 656v-85h-247v-201h232v-84h-232v-201h247v-85h-340v656h340z" />
    <glyph glyph-name="F" unicode="F" horiz-adv-x="421" 
d="M399 656v-85h-246v-213h230v-85h-230v-273h-93v656h339z" />
    <glyph glyph-name="G" unicode="G" horiz-adv-x="521" 
d="M366 438v34q0 53 -28 82t-78 29q-51 0 -80 -29t-29 -81v-290q0 -52 28 -80.5t80 -28.5q71 0 108 55v135h-132v83h222v-347h-75l-4 36q-48 -48 -123 -48q-58 0 -102.5 23.5t-69 66.5t-24.5 99v302q0 88 54 138.5t147 50.5q94 0 146 -51.5t52 -144.5v-34h-92z" />
    <glyph glyph-name="H" unicode="H" horiz-adv-x="499" 
d="M153 656v-286h193v286h93v-656h-93v286h-193v-286h-93v656h93z" />
    <glyph glyph-name="I" unicode="I" horiz-adv-x="220" 
d="M156 656v-656h-92v656h92z" />
    <glyph glyph-name="J" unicode="J" horiz-adv-x="459" 
d="M84.5 36q-47.5 48 -47.5 134v86h92v-86q0 -47 23 -72t66 -25t66 24t23 68v406h-201v85h293v-499q0 -78 -49 -123.5t-132 -45.5q-86 0 -133.5 48z" />
    <glyph glyph-name="K" unicode="K" horiz-adv-x="496" 
d="M461 14v-14h-94l-149 279l-65 -99v-180h-93v656h93v-313l210 313h96v-14l-183 -278z" />
    <glyph glyph-name="L" unicode="L" horiz-adv-x="416" 
d="M153 656v-571h253v-85h-346v656h93z" />
    <glyph glyph-name="M" unicode="M" horiz-adv-x="629" 
d="M569 0h-90v478l-132 -478h-65l-132 475v-475h-90v656h120l134 -472l134 472h121v-656z" />
    <glyph glyph-name="N" unicode="N" horiz-adv-x="499" 
d="M439 656v-656h-98l-192 462v-462h-89v656h98l192 -466v466h89z" />
    <glyph glyph-name="O" unicode="O" horiz-adv-x="512" 
d="M112 38.5q-53 50.5 -53 138.5v302q0 87 53 138t144 51t144 -51t53 -138v-302q0 -87 -53 -138t-144 -51t-144 50.5zM333.5 102q27.5 29 27.5 81v289q0 53 -27.5 82t-77.5 29t-77.5 -29t-27.5 -82v-289q0 -52 27.5 -81t77.5 -29t77.5 29z" />
    <glyph glyph-name="P" unicode="P" horiz-adv-x="482" 
d="M263 656q91 0 139.5 -46.5t48.5 -134.5v-20q0 -89 -48 -135t-140 -46h-110v-274h-93v656h203zM359 455v20q0 96 -103 96h-103v-213h103q103 0 103 97z" />
    <glyph glyph-name="Q" unicode="Q" horiz-adv-x="512" 
d="M400 617q53 -51 53 -138v-302q0 -69 -34 -116t-94 -64l39 -116v-14h-84l-40 121q-85 5 -133 55t-48 134v302q0 87 53 138t144 51t144 -51zM361 472q0 53 -27.5 82t-77.5 29t-77.5 -29t-27.5 -82v-289q0 -52 27.5 -81t77.5 -29t77.5 29t27.5 81v289z" />
    <glyph glyph-name="R" unicode="R" horiz-adv-x="486" 
d="M415.5 334.5q-35.5 -44.5 -104.5 -55.5l140 -265v-14h-91l-145 275h-62v-275h-93v656h203q91 0 139.5 -46.5t48.5 -134.5v-20q0 -76 -35.5 -120.5zM359 475q0 96 -103 96h-103v-213h103q103 0 103 97v20z" />
    <glyph glyph-name="S" unicode="S" horiz-adv-x="458" 
d="M87.5 37.5q-48.5 49.5 -48.5 141.5v30h90v-30q0 -52 25 -79.5t73 -27.5q47 0 73.5 24t26.5 67v11q0 37 -20.5 63t-69.5 48l-53 24q-70 31 -103 72t-33 99v19q0 76 50 122.5t135 46.5t133 -46.5t48 -130.5v-30h-91v30q0 46 -22 69.5t-69 23.5q-44 0 -68.5 -21.5
t-24.5 -60.5v-11q0 -34 18 -57.5t66 -44.5l55 -24q74 -32 108 -75.5t34 -105.5v-19q0 -80 -52 -128.5t-141 -48.5q-91 0 -139.5 49.5z" />
    <glyph glyph-name="T" unicode="T" horiz-adv-x="404" 
d="M10 571v85h384v-85h-146v-571h-92v571h-146z" />
    <glyph glyph-name="U" unicode="U" horiz-adv-x="495" 
d="M108 35q-48 47 -48 137v484h93v-483q0 -100 95 -100q94 0 94 100v483h93v-484q0 -90 -48 -137t-139 -47q-92 0 -140 47z" />
    <glyph glyph-name="V" unicode="V" horiz-adv-x="498" 
d="M472 656v-14l-169 -642h-107l-169 642v14h93l129 -508l129 508h94z" />
    <glyph glyph-name="W" unicode="W" horiz-adv-x="782" 
d="M756 656v-14l-151 -642h-107l-107 484l-106 -484h-107l-151 642v14h92l113 -506l114 506h90l115 -505l113 505h92z" />
    <glyph glyph-name="X" unicode="X" horiz-adv-x="496" 
d="M461 14v-14h-93l-120 255l-120 -255h-93v14l153 317l-151 311v14h93l118 -249l116 249h94v-14l-149 -311z" />
    <glyph glyph-name="Y" unicode="Y" horiz-adv-x="454" 
d="M436 642l-163 -374v-268h-92v266l-163 376v14h90l119 -277l118 277h91v-14z" />
    <glyph glyph-name="Z" unicode="Z" horiz-adv-x="426" 
d="M383 571l-244 -486h244v-85h-341v85l245 486h-237v85h333v-85z" />
    <glyph glyph-name="bracketleft" unicode="[" horiz-adv-x="304" 
d="M268 722v-82h-115v-624h115v-82h-208v788h208z" />
    <glyph glyph-name="backslash" unicode="\" horiz-adv-x="485" 
d="M71 722h84l259 -773v-15h-84l-259 773v15z" />
    <glyph glyph-name="bracketright" unicode="]" horiz-adv-x="304" 
d="M36 16h115v624h-115v82h208v-788h-208v82z" />
    <glyph glyph-name="asciicircum" unicode="^" horiz-adv-x="406" 
d="M378 385v-13h-86l-89 184l-89 -184h-86v13l136 271h78z" />
    <glyph glyph-name="underscore" unicode="_" horiz-adv-x="371" 
d="M324 -59v-82h-277v82h277z" />
    <glyph glyph-name="grave" unicode="`" horiz-adv-x="600" 
d="M166 704l268 -64v-80l-268 65v79z" />
    <glyph glyph-name="a" unicode="a" horiz-adv-x="462" 
d="M457 82v-82h-47q-66 0 -95 40q-43 -52 -126 -52q-69 0 -109.5 38t-40.5 103q0 62 38.5 98t118.5 50l99 17v48q0 40 -20.5 61.5t-59.5 21.5q-42 0 -63 -22.5t-21 -64.5v-10h-89v10q0 83 44 126.5t126 43.5q84 0 127.5 -43.5t43.5 -127.5v-207q0 -48 43 -48h31zM255.5 81.5
q26.5 16.5 39.5 44.5v94l-79 -13q-89 -15 -89 -76q0 -31 19 -48.5t52 -17.5q31 0 57.5 16.5z" />
    <glyph glyph-name="b" unicode="b" horiz-adv-x="454" 
d="M364 465q43 -43 43 -115v-203q0 -72 -43.5 -115.5t-113.5 -43.5q-68 0 -111 41l-4 -29h-78v696h90v-226q41 38 104 38q70 0 113 -43zM317 334q0 42 -23 66t-62 24q-26 0 -48 -13t-37 -35v-255q15 -22 37 -35t48 -13q39 0 62 24t23 66v171z" />
    <glyph glyph-name="c" unicode="c" horiz-adv-x="442" 
d="M94.5 32q-46.5 44 -46.5 122v187q0 79 46 123t129 44q82 0 128 -44t46 -123v-42h-90v39q0 39 -22.5 62.5t-61.5 23.5t-62 -23.5t-23 -62.5v-180q0 -38 23 -61.5t62 -23.5t61.5 23t22.5 62v36h90v-40q0 -78 -46 -122t-128 -44t-128.5 44z" />
    <glyph glyph-name="d" unicode="d" horiz-adv-x="454" 
d="M398 696v-696h-78l-3 29q-44 -41 -112 -41q-70 0 -113.5 43.5t-43.5 115.5v203q0 71 43.5 114.5t112.5 43.5q64 0 105 -38v226h89zM272.5 86q22.5 13 36.5 36v252q-14 23 -36.5 36.5t-49.5 13.5q-39 0 -62 -24t-23 -66v-171q0 -42 23 -66t62 -24q27 0 49.5 13z" />
    <glyph glyph-name="e" unicode="e" 
d="M137 219v-67q0 -37 23.5 -58.5t62.5 -21.5q40 0 63 22.5t23 63.5h89q-2 -82 -48 -126t-127 -44q-82 0 -128.5 44t-46.5 122v187q0 79 46.5 123t128.5 44t128.5 -44t46.5 -123v-122h-261zM160.5 402.5q-23.5 -22.5 -23.5 -59.5v-50h172v50q0 37 -23.5 59.5t-62.5 22.5
t-62.5 -22.5z" />
    <glyph glyph-name="f" unicode="f" horiz-adv-x="348" 
d="M339 415h-136v-415h-89v415h-109v81h109v64q0 67 35.5 101.5t103.5 34.5h53v-82h-43q-29 0 -44.5 -15.5t-15.5 -45.5v-57h136v-81z" />
    <glyph glyph-name="g" unicode="g" horiz-adv-x="454" 
d="M398 496v-511q0 -80 -45.5 -123.5t-130.5 -43.5t-130.5 43.5t-45.5 125.5v10h89v-10q0 -85 88 -85q41 0 63.5 21.5t22.5 61.5v83q-45 -40 -106 -40q-71 0 -113.5 43.5t-42.5 116.5v167q0 70 43 111.5t115 41.5t111 -47l4 35h78zM272.5 124q22.5 14 36.5 38v210
q-14 24 -36.5 38t-48.5 14q-40 0 -63.5 -25t-23.5 -67v-130q0 -42 23.5 -67t63.5 -25q26 0 48.5 14z" />
    <glyph glyph-name="h" unicode="h" horiz-adv-x="459" 
d="M364 467q40 -41 40 -117v-350h-88v335q0 89 -84 89q-25 0 -48 -13t-37 -36v-375h-90v696h90v-229q44 41 106 41q71 0 111 -41z" />
    <glyph glyph-name="i" unicode="i" horiz-adv-x="210" 
d="M149 496v-496h-89v496h89zM61.5 588q-17.5 17 -17.5 44t17 44t44 17t44 -16.5t17 -44.5q0 -27 -17 -44t-44 -17q-26 0 -43.5 17z" />
    <glyph glyph-name="j" unicode="j" horiz-adv-x="210" 
d="M-3 -88q30 0 46.5 17.5t16.5 48.5v518h89v-524q0 -66 -38 -104t-103 -38h-59v82h48zM61.5 588q-17.5 17 -17.5 44t17 44t44 17t44 -16.5t17 -44.5q0 -27 -17 -44t-44 -17q-26 0 -43.5 17z" />
    <glyph glyph-name="k" unicode="k" 
d="M427 13v-13h-97l-117 212l-66 -87v-125h-90v696h90v-428l177 228h97v-13l-149 -198z" />
    <glyph glyph-name="l" unicode="l" horiz-adv-x="232" 
d="M90.5 29.5q-30.5 29.5 -30.5 85.5v581h89v-566q0 -25 9.5 -36.5t33.5 -11.5h36v-82h-50q-57 0 -87.5 29.5z" />
    <glyph glyph-name="m" unicode="m" horiz-adv-x="702" 
d="M612.5 467q39.5 -41 39.5 -117v-350h-89v335q0 89 -80 89q-26 0 -48.5 -12.5t-37.5 -33.5q2 -18 2 -28v-350h-90v335q0 89 -79 89q-25 0 -48 -12.5t-37 -34.5v-377h-89v496h77l4 -35q21 23 50.5 35t63.5 12q42 0 74 -16t50 -47q21 31 54 47t74 16q70 0 109.5 -41z" />
    <glyph glyph-name="n" unicode="n" horiz-adv-x="459" 
d="M364.5 466.5q39.5 -41.5 39.5 -116.5v-350h-88v335q0 89 -84 89q-26 0 -48.5 -13t-36.5 -35v-376h-90v496h78l4 -36q21 23 51 35.5t63 12.5q72 0 111.5 -41.5z" />
    <glyph glyph-name="o" unicode="o" 
d="M95.5 31q-47.5 43 -47.5 123v187q0 81 47.5 124t127.5 43t127.5 -43t47.5 -124v-187q0 -80 -47.5 -123t-127.5 -43t-127.5 43zM284.5 95.5q23.5 22.5 23.5 62.5v180q0 41 -23.5 63.5t-61.5 22.5t-61.5 -22.5t-23.5 -63.5v-180q0 -40 23.5 -62.5t61.5 -22.5t61.5 22.5z
" />
    <glyph glyph-name="p" unicode="p" horiz-adv-x="454" 
d="M364 467q43 -41 43 -112v-214q0 -71 -43 -112t-113 -41q-63 0 -104 33v-191h-90v666h78l4 -33q42 45 113 45q69 0 112 -41zM317 335q0 41 -23 65t-62 24q-26 0 -48 -13t-37 -35v-255q15 -22 37 -35t48 -13q39 0 62 24t23 66v172z" />
    <glyph glyph-name="q" unicode="q" horiz-adv-x="454" 
d="M398 496v-666h-89v192q-42 -34 -105 -34q-70 0 -113 41t-43 112v214q0 71 43 112t112 41q71 0 113 -45l4 33h78zM272.5 86q22.5 13 36.5 36v252q-14 23 -36.5 36.5t-49.5 13.5q-39 0 -62 -24t-23 -65v-172q0 -42 23 -66t62 -24q27 0 49.5 13z" />
    <glyph glyph-name="r" unicode="r" horiz-adv-x="307" 
d="M297 496v-81h-57q-67 0 -91 -53v-362h-89v496h77l4 -38q43 38 99 38h57z" />
    <glyph glyph-name="s" unicode="s" horiz-adv-x="427" 
d="M88 27.5q-44 39.5 -44 113.5v18h88v-18q0 -34 21.5 -53.5t59.5 -19.5q37 0 59 17t22 45v8q0 26 -17.5 42.5t-55.5 27.5l-49 13q-60 16 -90 50.5t-30 84.5v15q0 62 44.5 99.5t120.5 37.5q78 0 121 -39t43 -110v-18h-87v18q0 32 -21.5 50.5t-57.5 18.5q-34 0 -54.5 -15
t-20.5 -41v-9q0 -24 15 -39.5t47 -24.5l58 -16q64 -18 94 -50.5t30 -89.5v-14q0 -65 -45.5 -103t-124.5 -38q-82 0 -126 39.5z" />
    <glyph glyph-name="t" unicode="t" horiz-adv-x="348" 
d="M201 415v-267q0 -32 15.5 -49t44.5 -17h53v-82h-65q-65 0 -101 35.5t-36 99.5v280h-107v81h83q15 0 21 6.5t6 20.5v106h86v-133h136v-81h-136z" />
    <glyph glyph-name="u" unicode="u" horiz-adv-x="459" 
d="M402 496v-496h-78l-4 36q-21 -23 -51 -35.5t-63 -12.5q-73 0 -112 41.5t-39 117.5v349h88v-335q0 -89 84 -89q26 0 48.5 13t36.5 35v376h90z" />
    <glyph glyph-name="v" unicode="v" 
d="M423 496v-13l-148 -483h-104l-148 483v13h87l113 -377l112 377h88z" />
    <glyph glyph-name="w" unicode="w" horiz-adv-x="678" 
d="M655 496v-13l-125 -483h-104l-87 350l-87 -350h-104l-125 483v13h85l93 -381l92 381h92l92 -381l93 381h85z" />
    <glyph glyph-name="x" unicode="x" horiz-adv-x="436" 
d="M410 13v-13h-93l-99 174l-99 -174h-92v13l136 237l-133 233v13h93l96 -169l95 169h93v-13l-133 -233z" />
    <glyph glyph-name="y" unicode="y" horiz-adv-x="464" 
d="M441 496v-13l-178 -546q-19 -59 -51.5 -83t-92.5 -24h-55v82h47q29 0 43 11t23 42l11 38l-165 480v13h94l118 -367l112 367h94z" />
    <glyph glyph-name="z" unicode="z" horiz-adv-x="421" 
d="M373 415l-223 -333h223v-82h-325v82l224 333h-224v81h325v-81z" />
    <glyph glyph-name="braceleft" unicode="{" horiz-adv-x="391" 
d="M171 328q65 -18 65 -104v-146q0 -30 15 -46t43 -16h61v-82h-80q-58 0 -93 37t-35 98v160q0 28 -15 43t-43 15h-42v82h42q28 0 43 15t15 44v160q0 61 35 97.5t93 36.5h80v-82h-61q-28 0 -43 -16t-15 -46v-145q0 -87 -65 -105z" />
    <glyph glyph-name="bar" unicode="|" horiz-adv-x="260" 
d="M176 722v-788h-92v788h92z" />
    <glyph glyph-name="braceright" unicode="}" horiz-adv-x="391" 
d="M344 369v-82h-42q-28 0 -43 -15t-15 -44v-160q0 -61 -35 -97.5t-93 -36.5h-80v82h61q28 0 43 16t15 46v145q0 87 65 105q-65 18 -65 104v146q0 30 -15 46t-43 16h-61v82h80q58 0 93 -37t35 -98v-160q0 -28 15 -43t43 -15h42z" />
    <glyph glyph-name="asciitilde" unicode="~" horiz-adv-x="490" 
d="M303.5 268.5q-20.5 4.5 -56.5 14.5q-59 19 -100 19q-39 0 -105 -24v85q58 23 105 23q42 0 103 -19q33 -9 54 -13.5t45 -4.5q43 0 98 21v-85q-51 -21 -98 -21q-25 0 -45.5 4.5z" />
    <glyph glyph-name="uni00A0" unicode="&#xa0;" horiz-adv-x="230" 
 />
    <glyph glyph-name="exclamdown" unicode="&#xa1;" horiz-adv-x="254" 
d="M84.5 407q-16.5 16 -16.5 42t16.5 42.5t42.5 16.5t42.5 -16.5t16.5 -42.5t-16.5 -42t-42.5 -16t-42.5 16zM169 321l4 -491h-92l3 491h85z" />
    <glyph glyph-name="cent" unicode="&#xa2;" horiz-adv-x="490" 
d="M351 376v26q0 46 -27.5 71.5t-76.5 25.5t-77.5 -25.5t-28.5 -69.5v-152q0 -44 28.5 -69.5t77.5 -25.5t76.5 25.5t27.5 70.5v26h91v-26q0 -76 -39 -121.5t-112 -55.5v-86h-91v87q-71 12 -111 56.5t-40 112.5v164q0 68 40 112.5t111 56.5v87h91v-86q73 -10 112 -56t39 -122
v-26h-91z" />
    <glyph glyph-name="sterling" unicode="&#xa3;" horiz-adv-x="490" 
d="M373 471v20q0 92 -83 92q-40 0 -61.5 -25t-21.5 -72v-142h156v-81h-156v-98q0 -51 -26 -80h279v-85h-430v85h14q74 0 74 76v102h-88v81h88v141q0 88 45 135.5t127 47.5t126 -45.5t44 -131.5v-20h-87z" />
    <glyph glyph-name="currency" unicode="&#xa4;" horiz-adv-x="490" 
d="M416 48l-80 78q-38 -20 -91 -20t-91 20l-80 -78l-64 64l81 79q-15 32 -15 73v116q0 42 15 73l-80 80l64 63l78 -78q40 20 92 20q54 0 92 -20l78 78l64 -63l-79 -79q15 -33 15 -74v-116q0 -41 -15 -73l80 -79zM305 213.5q22 20.5 22 57.5v103q0 36 -22 57.5t-60 21.5
t-60 -21.5t-22 -57.5v-103q0 -37 22 -57.5t60 -20.5t60 20.5z" />
    <glyph glyph-name="yen" unicode="&#xa5;" horiz-adv-x="490" 
d="M459 642l-146 -322h122v-76h-144v-83h144v-76h-144v-85h-92v85h-143v76h143v83h-143v76h122l-146 322v14h90l123 -278l123 278h91v-14z" />
    <glyph glyph-name="brokenbar" unicode="&#xa6;" horiz-adv-x="260" 
d="M176 722v-264h-92v264h92zM176 198v-264h-92v264h92z" />
    <glyph glyph-name="section" unicode="&#xa7;" horiz-adv-x="448" 
d="M379 253.5q-14 -23.5 -39 -39.5q40 -35 40 -80v-22q0 -54 -46 -89t-118 -35q-74 0 -117.5 35.5t-43.5 95.5v19h87v-19q0 -28 19.5 -43t56.5 -15q35 0 55.5 13.5t20.5 37.5v10q0 37 -61 60l-80 30q-98 37 -98 120v18q0 29 13.5 52.5t38.5 39.5q-40 35 -40 80v22
q0 54 46 89t119 35t116.5 -35.5t43.5 -95.5v-19h-86v19q0 28 -20 43t-56 15q-35 0 -55.5 -13.5t-20.5 -37.5v-10q0 -18 14.5 -32t46.5 -27l80 -31q50 -19 74 -48.5t24 -71.5v-18q0 -29 -14 -52.5zM307 304v12q0 34 -54 56l-83 33h-1q-28 -22 -28 -53v-12q0 -35 54 -56
l83 -33q29 23 29 53z" />
    <glyph glyph-name="dieresis" unicode="&#xa8;" horiz-adv-x="600" 
d="M172 592.5q-15 14.5 -15 39.5q0 24 15 39t39 15t39 -14.5t15 -39.5t-15 -39.5t-39 -14.5t-39 14.5zM349 592.5q-15 14.5 -15 39.5q0 24 15 39t39 15t39.5 -15t15.5 -39t-15.5 -39t-39.5 -15t-39 14.5z" />
    <glyph glyph-name="copyright" unicode="&#xa9;" horiz-adv-x="662" 
d="M178 23.5q-67 35.5 -104 99t-37 144.5v122q0 81 37.5 144.5t104.5 99t152 35.5q87 0 153.5 -35t103.5 -98.5t37 -145.5v-122q0 -82 -37 -145.5t-103.5 -98.5t-153.5 -35q-86 0 -153 35.5zM447.5 82.5q50.5 26.5 78 75.5t27.5 113v113q0 65 -27.5 114t-78 75.5
t-116.5 26.5q-65 0 -115.5 -27t-78.5 -76t-28 -113v-113q0 -64 27.5 -112.5t78 -75.5t116.5 -27t116.5 26.5zM229 174q-38 37 -38 102v101q0 66 38.5 104.5t103.5 38.5q64 0 101 -39t37 -106v-22h-72v19q0 34 -17.5 53.5t-49.5 19.5t-50 -19.5t-18 -53.5v-89q0 -33 18 -52
t50 -19t49.5 18.5t17.5 52.5v16h72v-22q0 -66 -36.5 -103t-101.5 -37q-66 0 -104 37z" />
    <glyph glyph-name="ordfeminine" unicode="&#xaa;" horiz-adv-x="390" 
d="M387 318v-72h-42q-52 0 -78 29q-39 -39 -106 -39q-62 0 -97.5 31t-35.5 84q0 51 33 81.5t101 40.5l84 13v40q0 64 -67 64q-70 0 -70 -70v-6h-78v6q0 70 37.5 106.5t109.5 36.5q148 0 148 -142v-166q0 -37 35 -37h26zM214 314q21 12 32 32v78l-66 -11q-75 -12 -75 -60
q0 -23 17 -37t45 -14q26 0 47 12z" />
    <glyph glyph-name="guillemotleft" unicode="&#xab;" horiz-adv-x="544" 
d="M162 277l110 -206v-13h-93l-113 212v14l113 212h93v-14zM368 277l110 -206v-13h-93l-113 212v14l113 212h93v-14z" />
    <glyph glyph-name="logicalnot" unicode="&#xac;" horiz-adv-x="490" 
d="M42 286v84h405v-248h-93v164h-312z" />
    <glyph glyph-name="uni00AD" unicode="&#xad;" horiz-adv-x="334" 
d="M274 318v-82h-215v82h215z" />
    <glyph glyph-name="registered" unicode="&#xae;" horiz-adv-x="464" 
d="M372 656.5q53 -51.5 53 -134.5v-61q0 -85 -52.5 -135.5t-139.5 -50.5q-57 0 -101 23.5t-68.5 65.5t-24.5 97v61q0 55 24.5 97t68.5 65.5t101 23.5q86 0 139 -51.5zM369 522q0 62 -36.5 97.5t-99.5 35.5q-62 0 -99.5 -36t-37.5 -97v-61q0 -61 37 -97t100 -36t99.5 35.5
t36.5 97.5v61zM283 470l40 -75v-5h-52l-41 74h-21v-74h-52v204h85q38 0 58.5 -14t20.5 -46v-7q0 -43 -38 -57zM209 502h32q15 0 23 6.5t8 17.5v7q0 23 -31 23h-32v-54z" />
    <glyph glyph-name="macron" unicode="&#xaf;" horiz-adv-x="600" 
d="M434 671v-78h-268v78h268z" />
    <glyph glyph-name="degree" unicode="&#xb0;" horiz-adv-x="350" 
d="M75.5 421.5q-38.5 37.5 -38.5 96.5v16q0 58 39 96t99 38q61 0 99.5 -37.5t38.5 -96.5v-16q0 -59 -38.5 -96.5t-99.5 -37.5t-99.5 37.5zM223 471q19 18 19 47v16q0 29 -19 47.5t-48 18.5t-48 -18.5t-19 -47.5v-16q0 -28 19 -46.5t48 -18.5t48 18z" />
    <glyph glyph-name="plusminus" unicode="&#xb1;" horiz-adv-x="490" 
d="M437 401v-84h-149v-159h-85v159h-151v84h151v163h85v-163h149zM52 100h385v-83h-385v83z" />
    <glyph glyph-name="uni00B2" unicode="&#xb2;" horiz-adv-x="333" 
d="M143 521q43 45 59 70t16 46v7q0 23 -15 36t-40 13q-27 0 -42 -12.5t-15 -35.5v-15h-75v17q0 56 34.5 87t98.5 31t97.5 -29.5t33.5 -84.5v-7q0 -37 -19.5 -73t-66.5 -85l-69 -72h165v-71h-265v71z" />
    <glyph glyph-name="uni00B3" unicode="&#xb3;" horiz-adv-x="333" 
d="M61.5 366.5q-37.5 31.5 -37.5 83.5v16h76v-10q0 -23 16.5 -36t44.5 -13t44 13.5t16 36.5v29q0 22 -17 34.5t-49 12.5h-62v48l106 104h-165v72h259v-72l-90 -89l12 -1q83 -16 83 -99v-45q0 -53 -37 -84.5t-99 -31.5q-63 0 -100.5 31.5z" />
    <glyph glyph-name="acute" unicode="&#xb4;" horiz-adv-x="600" 
d="M434 704v-79l-268 -65v80z" />
    <glyph glyph-name="uni00B5" unicode="&#xb5;" horiz-adv-x="484" 
d="M480 82v-82h-49q-65 0 -94 38q-17 -23 -44.5 -36.5t-59.5 -13.5q-55 0 -86 28v-186h-90v666h90v-335q0 -88 85 -88q26 0 48.5 12.5t35.5 34.5v376h88v-366q0 -48 44 -48h32z" />
    <glyph glyph-name="paragraph" unicode="&#xb6;" horiz-adv-x="619" 
d="M389 0h-87v274h-83q-93 0 -140.5 46t-47.5 135v20q0 88 48 134.5t140 46.5h170v-656zM559 656v-656h-87v656h87z" />
    <glyph glyph-name="periodcentered" unicode="&#xb7;" horiz-adv-x="284" 
d="M100 238q-17 17 -17 42q0 26 16.5 42.5t42.5 16.5t42.5 -16.5t16.5 -42.5t-16.5 -42.5t-42.5 -16.5q-25 0 -42 17z" />
    <glyph glyph-name="cedilla" unicode="&#xb8;" horiz-adv-x="600" 
d="M367 1l-43 -171h-92l47 186z" />
    <glyph glyph-name="uni00B9" unicode="&#xb9;" horiz-adv-x="333" 
d="M149 414v247q-20 -11 -46 -11h-73v71h76q20 0 31.5 9t11.5 26h79v-342h100v-71h-298v71h119z" />
    <glyph glyph-name="ordmasculine" unicode="&#xba;" horiz-adv-x="366" 
d="M71 273.5q-40 37.5 -40 105.5v141q0 68 39.5 105.5t112.5 37.5q71 0 111 -37.5t40 -105.5v-141q0 -68 -39.5 -105.5t-111.5 -37.5t-112 37.5zM235 330q19 19 19 53v134q0 34 -19 52.5t-52 18.5q-34 0 -53 -18.5t-19 -52.5v-134q0 -34 19 -53t53 -19q33 0 52 19z" />
    <glyph glyph-name="guillemotright" unicode="&#xbb;" horiz-adv-x="544" 
d="M176 277l-110 206v13h93l113 -212v-14l-113 -212h-93v14zM382 277l-110 206v13h93l113 -212v-14l-113 -212h-93v14z" />
    <glyph glyph-name="onequarter" unicode="&#xbc;" horiz-adv-x="952" 
d="M149 314v247q-20 -11 -46 -11h-73v71h76q20 0 31.5 9t11.5 26h79v-342h100v-71h-298v71h119zM683 656h78v-14l-444 -642h-78v13zM638 84v70q22 60 36 121.5t21 138.5h76v-11q-12 -133 -52 -249h101v188h75v-188h53v-70h-53v-84h-75v84h-182z" />
    <glyph glyph-name="onehalf" unicode="&#xbd;" horiz-adv-x="959" 
d="M149 314v247q-20 -11 -46 -11h-73v71h76q20 0 31.5 9t11.5 26h79v-342h100v-71h-298v71h119zM683 656h78v-14l-444 -642h-78v13zM769 178q43 45 59 70t16 46v7q0 23 -15 36t-40 13q-27 0 -42 -12.5t-15 -35.5v-15h-75v17q0 56 34.5 87t98.5 31t97.5 -29.5t33.5 -84.5v-7
q0 -37 -19.5 -73t-66.5 -85l-69 -72h165v-71h-265v71z" />
    <glyph glyph-name="threequarters" unicode="&#xbe;" horiz-adv-x="918" 
d="M61.5 266.5q-37.5 31.5 -37.5 83.5v16h76v-10q0 -23 16.5 -36t44.5 -13t44 13.5t16 36.5v29q0 22 -17 34.5t-49 12.5h-62v48l106 104h-165v72h259v-72l-90 -89l12 -1q83 -16 83 -99v-45q0 -53 -37 -84.5t-99 -31.5q-63 0 -100.5 31.5zM649 656h78v-14l-444 -642h-78v13z
M604 84v70q22 60 36 121.5t21 138.5h76v-11q-12 -133 -52 -249h101v188h75v-188h53v-70h-53v-84h-75v84h-182z" />
    <glyph glyph-name="questiondown" unicode="&#xbf;" horiz-adv-x="421" 
d="M180 407q-16 16 -16 42q0 27 16 43t42 16t42.5 -16.5t16.5 -42.5q0 -25 -16.5 -41.5t-42.5 -16.5t-42 16zM89.5 -140q-44.5 42 -44.5 112v18q0 41 15.5 74t53.5 74q30 32 44 54t18 39.5t4 43.5v46h86v-52q0 -50 -16.5 -86.5t-64.5 -87.5q-29 -31 -39.5 -53.5t-10.5 -49.5
v-14q0 -34 21 -55.5t56 -21.5q39 0 59.5 21.5t20.5 61.5v43h88v-44q0 -79 -44 -122t-126 -43q-76 0 -120.5 42z" />
    <glyph glyph-name="Agrave" unicode="&#xc0;" horiz-adv-x="499" 
d="M473 14v-14h-94l-36 146h-186l-36 -146h-94v14l169 642h109zM322 229l-72 294l-72 -294h144zM116 864l268 -64v-80l-268 65v79z" />
    <glyph glyph-name="Aacute" unicode="&#xc1;" horiz-adv-x="499" 
d="M473 14v-14h-94l-36 146h-186l-36 -146h-94v14l169 642h109zM322 229l-72 294l-72 -294h144zM384 864v-79l-268 -65v80z" />
    <glyph glyph-name="Acircumflex" unicode="&#xc2;" horiz-adv-x="499" 
d="M473 14v-14h-94l-36 146h-186l-36 -146h-94v14l169 642h109zM322 229l-72 294l-72 -294h144zM249 865l135 -61v-83l-135 61l-133 -61v83z" />
    <glyph glyph-name="Atilde" unicode="&#xc3;" horiz-adv-x="499" 
d="M473 14v-14h-94l-36 146h-186l-36 -146h-94v14l169 642h109zM322 229l-72 294l-72 -294h144zM252 753q-16 5 -32 9.5t-31 4.5q-37 0 -73 -21v77q36 23 73 23q24 0 64 -14q21 -7 35.5 -10.5t31.5 -3.5q34 0 64 15v-78q-29 -16 -64 -16q-26 0 -68 14z" />
    <glyph glyph-name="Adieresis" unicode="&#xc4;" horiz-adv-x="499" 
d="M473 14v-14h-94l-36 146h-186l-36 -146h-94v14l169 642h109zM322 229l-72 294l-72 -294h144zM122 752.5q-15 14.5 -15 39.5q0 24 15 39t39 15t39 -14.5t15 -39.5t-15 -39.5t-39 -14.5t-39 14.5zM299 752.5q-15 14.5 -15 39.5q0 24 15 39t39 15t39.5 -15t15.5 -39
t-15.5 -39t-39.5 -15t-39 14.5z" />
    <glyph glyph-name="Aring" unicode="&#xc5;" horiz-adv-x="499" 
d="M473 14v-14h-94l-36 146h-186l-36 -146h-94v14l169 642h109zM322 229l-72 294l-72 -294h144zM166 659.5q-32 30.5 -32 79.5q0 50 32 81t83 31q52 0 84 -31t32 -81q0 -49 -32 -79.5t-84 -30.5q-51 0 -83 30.5zM285.5 703q13.5 14 13.5 36q0 23 -13.5 36.5t-35.5 13.5
q-21 0 -35.5 -14t-14.5 -36t14 -36t36 -14t35.5 14z" />
    <glyph glyph-name="AE" unicode="&#xc6;" horiz-adv-x="657" 
d="M374 571l26 -201h208v-84h-198l26 -201h192v-85h-274l-18 146h-183l-37 -146h-89v14l167 642h434v-85h-254zM283 571h-23l-86 -342h152z" />
    <glyph glyph-name="Ccedilla" unicode="&#xc7;" horiz-adv-x="502" 
d="M112 38.5q-53 50.5 -53 138.5v302q0 88 53 138.5t145 50.5q98 0 147.5 -52.5t49.5 -155.5v-60h-92v60q0 123 -106 123q-50 0 -77.5 -29t-27.5 -82v-289q0 -53 27.5 -81.5t77.5 -28.5q106 0 106 119v62h92v-62q0 -100 -50 -152t-147 -52q-92 0 -145 50.5zM304 1l-43 -171
h-92l47 186z" />
    <glyph glyph-name="Egrave" unicode="&#xc8;" horiz-adv-x="429" 
d="M400 656v-85h-247v-201h232v-84h-232v-201h247v-85h-340v656h340zM96 864l268 -64v-80l-268 65v79z" />
    <glyph glyph-name="Eacute" unicode="&#xc9;" horiz-adv-x="429" 
d="M400 656v-85h-247v-201h232v-84h-232v-201h247v-85h-340v656h340zM364 864v-79l-268 -65v80z" />
    <glyph glyph-name="Ecircumflex" unicode="&#xca;" horiz-adv-x="429" 
d="M400 656v-85h-247v-201h232v-84h-232v-201h247v-85h-340v656h340zM229 865l135 -61v-83l-135 61l-133 -61v83z" />
    <glyph glyph-name="Edieresis" unicode="&#xcb;" horiz-adv-x="429" 
d="M400 656v-85h-247v-201h232v-84h-232v-201h247v-85h-340v656h340zM102 752.5q-15 14.5 -15 39.5q0 24 15 39t39 15t39 -14.5t15 -39.5t-15 -39.5t-39 -14.5t-39 14.5zM279 752.5q-15 14.5 -15 39.5q0 24 15 39t39 15t39.5 -15t15.5 -39t-15.5 -39t-39.5 -15t-39 14.5z
" />
    <glyph glyph-name="Igrave" unicode="&#xcc;" horiz-adv-x="220" 
d="M156 656v-656h-92v656h92zM3 855l215 -47v-79l-215 46v80z" />
    <glyph glyph-name="Iacute" unicode="&#xcd;" horiz-adv-x="220" 
d="M156 656v-656h-92v656h92zM218 855v-80l-215 -46v79z" />
    <glyph glyph-name="Icircumflex" unicode="&#xce;" horiz-adv-x="220" 
d="M156 656v-656h-92v656h92zM109 863l109 -49v-83l-109 49l-106 -49v83z" />
    <glyph glyph-name="Idieresis" unicode="&#xcf;" horiz-adv-x="220" 
d="M156 656v-656h-92v656h92zM-18 752.5q-15 14.5 -15 39.5q0 24 15 39t39 15t39 -14.5t15 -39.5t-15 -39.5t-39 -14.5t-39 14.5zM159 752.5q-15 14.5 -15 39.5q0 24 15 39t39 15t39.5 -15t15.5 -39t-15.5 -39t-39.5 -15t-39 14.5z" />
    <glyph glyph-name="Eth" unicode="&#xd0;" horiz-adv-x="510" 
d="M398.5 605q52.5 -51 52.5 -143v-269q0 -91 -53 -142t-147 -51h-178v287h-63v82h63v287h178q95 0 147.5 -51zM359 458q0 55 -27 84t-78 29h-88v-202h103v-82h-103v-202h88q51 0 78 29t27 84v260z" />
    <glyph glyph-name="Ntilde" unicode="&#xd1;" horiz-adv-x="499" 
d="M439 656v-656h-98l-192 462v-462h-89v656h98l192 -466v466h89zM251 753q-16 5 -32 9.5t-31 4.5q-37 0 -73 -21v77q36 23 73 23q24 0 64 -14q21 -7 35.5 -10.5t31.5 -3.5q34 0 64 15v-78q-29 -16 -64 -16q-26 0 -68 14z" />
    <glyph glyph-name="Ograve" unicode="&#xd2;" horiz-adv-x="512" 
d="M112 38.5q-53 50.5 -53 138.5v302q0 87 53 138t144 51t144 -51t53 -138v-302q0 -87 -53 -138t-144 -51t-144 50.5zM333.5 102q27.5 29 27.5 81v289q0 53 -27.5 82t-77.5 29t-77.5 -29t-27.5 -82v-289q0 -52 27.5 -81t77.5 -29t77.5 29zM122 864l268 -64v-80l-268 65v79z
" />
    <glyph glyph-name="Oacute" unicode="&#xd3;" horiz-adv-x="512" 
d="M112 38.5q-53 50.5 -53 138.5v302q0 87 53 138t144 51t144 -51t53 -138v-302q0 -87 -53 -138t-144 -51t-144 50.5zM333.5 102q27.5 29 27.5 81v289q0 53 -27.5 82t-77.5 29t-77.5 -29t-27.5 -82v-289q0 -52 27.5 -81t77.5 -29t77.5 29zM390 864v-79l-268 -65v80z" />
    <glyph glyph-name="Ocircumflex" unicode="&#xd4;" horiz-adv-x="512" 
d="M112 38.5q-53 50.5 -53 138.5v302q0 87 53 138t144 51t144 -51t53 -138v-302q0 -87 -53 -138t-144 -51t-144 50.5zM333.5 102q27.5 29 27.5 81v289q0 53 -27.5 82t-77.5 29t-77.5 -29t-27.5 -82v-289q0 -52 27.5 -81t77.5 -29t77.5 29zM255 865l135 -61v-83l-135 61
l-133 -61v83z" />
    <glyph glyph-name="Otilde" unicode="&#xd5;" horiz-adv-x="512" 
d="M112 38.5q-53 50.5 -53 138.5v302q0 87 53 138t144 51t144 -51t53 -138v-302q0 -87 -53 -138t-144 -51t-144 50.5zM333.5 102q27.5 29 27.5 81v289q0 53 -27.5 82t-77.5 29t-77.5 -29t-27.5 -82v-289q0 -52 27.5 -81t77.5 -29t77.5 29zM258 753q-16 5 -32 9.5t-31 4.5
q-37 0 -73 -21v77q36 23 73 23q24 0 64 -14q21 -7 35.5 -10.5t31.5 -3.5q34 0 64 15v-78q-29 -16 -64 -16q-26 0 -68 14z" />
    <glyph glyph-name="Odieresis" unicode="&#xd6;" horiz-adv-x="512" 
d="M112 38.5q-53 50.5 -53 138.5v302q0 87 53 138t144 51t144 -51t53 -138v-302q0 -87 -53 -138t-144 -51t-144 50.5zM333.5 102q27.5 29 27.5 81v289q0 53 -27.5 82t-77.5 29t-77.5 -29t-27.5 -82v-289q0 -52 27.5 -81t77.5 -29t77.5 29zM128 752.5q-15 14.5 -15 39.5
q0 24 15 39t39 15t39 -14.5t15 -39.5t-15 -39.5t-39 -14.5t-39 14.5zM305 752.5q-15 14.5 -15 39.5q0 24 15 39t39 15t39.5 -15t15.5 -39t-15.5 -39t-39.5 -15t-39 14.5z" />
    <glyph glyph-name="multiply" unicode="&#xd7;" horiz-adv-x="490" 
d="M304 328l130 -130l-60 -60l-130 130l-130 -129l-60 59l130 130l-130 130l60 60l130 -130l131 130l60 -59z" />
    <glyph glyph-name="Oslash" unicode="&#xd8;" horiz-adv-x="512" 
d="M453 479v-302q0 -87 -53.5 -138t-143.5 -51q-34 0 -66 8l-21 -62h-87v15l31 89q-54 51 -54 139v302q0 88 53 138.5t144 50.5q35 0 67 -9l21 63h87v-14l-31 -91q53 -51 53 -138zM147 184q0 -27 8 -49l146 442q-18 7 -45 7q-52 0 -80.5 -29.5t-28.5 -82.5v-288zM365 472
q0 24 -7 48l-146 -441q18 -7 44 -7q52 0 80.5 29.5t28.5 82.5v288z" />
    <glyph glyph-name="Ugrave" unicode="&#xd9;" horiz-adv-x="495" 
d="M108 35q-48 47 -48 137v484h93v-483q0 -100 95 -100q94 0 94 100v483h93v-484q0 -90 -48 -137t-139 -47q-92 0 -140 47zM117 864l268 -64v-80l-268 65v79z" />
    <glyph glyph-name="Uacute" unicode="&#xda;" horiz-adv-x="495" 
d="M108 35q-48 47 -48 137v484h93v-483q0 -100 95 -100q94 0 94 100v483h93v-484q0 -90 -48 -137t-139 -47q-92 0 -140 47zM385 864v-79l-268 -65v80z" />
    <glyph glyph-name="Ucircumflex" unicode="&#xdb;" horiz-adv-x="495" 
d="M108 35q-48 47 -48 137v484h93v-483q0 -100 95 -100q94 0 94 100v483h93v-484q0 -90 -48 -137t-139 -47q-92 0 -140 47zM250 865l135 -61v-83l-135 61l-133 -61v83z" />
    <glyph glyph-name="Udieresis" unicode="&#xdc;" horiz-adv-x="495" 
d="M108 35q-48 47 -48 137v484h93v-483q0 -100 95 -100q94 0 94 100v483h93v-484q0 -90 -48 -137t-139 -47q-92 0 -140 47zM123 752.5q-15 14.5 -15 39.5q0 24 15 39t39 15t39 -14.5t15 -39.5t-15 -39.5t-39 -14.5t-39 14.5zM300 752.5q-15 14.5 -15 39.5q0 24 15 39t39 15
t39.5 -15t15.5 -39t-15.5 -39t-39.5 -15t-39 14.5z" />
    <glyph glyph-name="Yacute" unicode="&#xdd;" horiz-adv-x="454" 
d="M436 642l-163 -374v-268h-92v266l-163 376v14h90l119 -277l118 277h91v-14zM361 864v-79l-268 -65v80z" />
    <glyph glyph-name="Thorn" unicode="&#xde;" horiz-adv-x="482" 
d="M403 472.5q48 -46.5 48 -134.5v-20q0 -89 -48 -135t-140 -46h-110v-137h-93v656h93v-137h110q92 0 140 -46.5zM359 338q0 96 -103 96h-103v-213h103q103 0 103 97v20z" />
    <glyph glyph-name="germandbls" unicode="&#xdf;" horiz-adv-x="468" 
d="M412.5 298q22.5 -37 22.5 -89v-49q0 -77 -46.5 -118.5t-134.5 -41.5h-41v82h33q48 0 74 23t26 68v43q0 44 -27 67t-79 23h-27v81h18q42 0 65 25.5t23 70.5v49q0 43 -23 67t-63 24t-63 -24t-23 -67v-532h-90v536q0 80 47 126t129 46q81 0 127.5 -46t46.5 -126v-46
q0 -96 -60 -135q43 -20 65.5 -57z" />
    <glyph glyph-name="agrave" unicode="&#xe0;" horiz-adv-x="462" 
d="M457 82v-82h-47q-66 0 -95 40q-43 -52 -126 -52q-69 0 -109.5 38t-40.5 103q0 62 38.5 98t118.5 50l99 17v48q0 40 -20.5 61.5t-59.5 21.5q-42 0 -63 -22.5t-21 -64.5v-10h-89v10q0 83 44 126.5t126 43.5q84 0 127.5 -43.5t43.5 -127.5v-207q0 -48 43 -48h31zM255.5 81.5
q26.5 16.5 39.5 44.5v94l-79 -13q-89 -15 -89 -76q0 -31 19 -48.5t52 -17.5q31 0 57.5 16.5zM87 704l268 -64v-80l-268 65v79z" />
    <glyph glyph-name="aacute" unicode="&#xe1;" horiz-adv-x="462" 
d="M457 82v-82h-47q-66 0 -95 40q-43 -52 -126 -52q-69 0 -109.5 38t-40.5 103q0 62 38.5 98t118.5 50l99 17v48q0 40 -20.5 61.5t-59.5 21.5q-42 0 -63 -22.5t-21 -64.5v-10h-89v10q0 83 44 126.5t126 43.5q84 0 127.5 -43.5t43.5 -127.5v-207q0 -48 43 -48h31zM255.5 81.5
q26.5 16.5 39.5 44.5v94l-79 -13q-89 -15 -89 -76q0 -31 19 -48.5t52 -17.5q31 0 57.5 16.5zM355 704v-79l-268 -65v80z" />
    <glyph glyph-name="acircumflex" unicode="&#xe2;" horiz-adv-x="462" 
d="M457 82v-82h-47q-66 0 -95 40q-43 -52 -126 -52q-69 0 -109.5 38t-40.5 103q0 62 38.5 98t118.5 50l99 17v48q0 40 -20.5 61.5t-59.5 21.5q-42 0 -63 -22.5t-21 -64.5v-10h-89v10q0 83 44 126.5t126 43.5q84 0 127.5 -43.5t43.5 -127.5v-207q0 -48 43 -48h31zM255.5 81.5
q26.5 16.5 39.5 44.5v94l-79 -13q-89 -15 -89 -76q0 -31 19 -48.5t52 -17.5q31 0 57.5 16.5zM220 705l135 -61v-83l-135 61l-133 -61v83z" />
    <glyph glyph-name="atilde" unicode="&#xe3;" horiz-adv-x="462" 
d="M457 82v-82h-47q-66 0 -95 40q-43 -52 -126 -52q-69 0 -109.5 38t-40.5 103q0 62 38.5 98t118.5 50l99 17v48q0 40 -20.5 61.5t-59.5 21.5q-42 0 -63 -22.5t-21 -64.5v-10h-89v10q0 83 44 126.5t126 43.5q84 0 127.5 -43.5t43.5 -127.5v-207q0 -48 43 -48h31zM255.5 81.5
q26.5 16.5 39.5 44.5v94l-79 -13q-89 -15 -89 -76q0 -31 19 -48.5t52 -17.5q31 0 57.5 16.5zM223 593q-16 5 -32 9.5t-31 4.5q-37 0 -73 -21v77q36 23 73 23q24 0 64 -14q21 -7 35.5 -10.5t31.5 -3.5q34 0 64 15v-78q-29 -16 -64 -16q-26 0 -68 14z" />
    <glyph glyph-name="adieresis" unicode="&#xe4;" horiz-adv-x="462" 
d="M457 82v-82h-47q-66 0 -95 40q-43 -52 -126 -52q-69 0 -109.5 38t-40.5 103q0 62 38.5 98t118.5 50l99 17v48q0 40 -20.5 61.5t-59.5 21.5q-42 0 -63 -22.5t-21 -64.5v-10h-89v10q0 83 44 126.5t126 43.5q84 0 127.5 -43.5t43.5 -127.5v-207q0 -48 43 -48h31zM255.5 81.5
q26.5 16.5 39.5 44.5v94l-79 -13q-89 -15 -89 -76q0 -31 19 -48.5t52 -17.5q31 0 57.5 16.5zM93 592.5q-15 14.5 -15 39.5q0 24 15 39t39 15t39 -14.5t15 -39.5t-15 -39.5t-39 -14.5t-39 14.5zM270 592.5q-15 14.5 -15 39.5q0 24 15 39t39 15t39.5 -15t15.5 -39t-15.5 -39
t-39.5 -15t-39 14.5z" />
    <glyph glyph-name="aring" unicode="&#xe5;" horiz-adv-x="462" 
d="M457 82v-82h-47q-66 0 -95 40q-43 -52 -126 -52q-69 0 -109.5 38t-40.5 103q0 62 38.5 98t118.5 50l99 17v48q0 40 -20.5 61.5t-59.5 21.5q-42 0 -63 -22.5t-21 -64.5v-10h-89v10q0 83 44 126.5t126 43.5q84 0 127.5 -43.5t43.5 -127.5v-207q0 -48 43 -48h31zM255.5 81.5
q26.5 16.5 39.5 44.5v94l-79 -13q-89 -15 -89 -76q0 -31 19 -48.5t52 -17.5q31 0 57.5 16.5zM138 572.5q-32 30.5 -32 79.5q0 50 32 81t83 31q52 0 84 -31t32 -81q0 -49 -32 -79.5t-84 -30.5q-51 0 -83 30.5zM257.5 616q13.5 14 13.5 36q0 23 -13.5 36.5t-35.5 13.5
q-21 0 -35.5 -14t-14.5 -36t14 -36t36 -14t35.5 14z" />
    <glyph glyph-name="ae" unicode="&#xe6;" horiz-adv-x="695" 
d="M390 223v-68q0 -38 23.5 -60.5t63.5 -22.5q37 0 59 23t22 63h89q-2 -81 -47 -125.5t-123 -44.5q-97 0 -147 59q-23 -29 -57.5 -44t-77.5 -15q-73 0 -114.5 37.5t-41.5 102.5q0 62 38.5 98t118.5 49l97 16v52q0 39 -21 60.5t-59 21.5q-41 0 -62 -22.5t-21 -64.5v-10h-88
v10q0 83 42.5 126.5t122.5 43.5q97 0 138 -63q23 30 58.5 46.5t78.5 16.5q73 0 119 -46.5t46 -120.5v-118h-257zM413 401q-23 -24 -23 -62v-43h168v43q0 38 -23 62t-61 24t-61 -24zM258 82q25 17 37 47q-2 20 -2 31v57l-79 -12q-87 -13 -87 -74q0 -32 19 -49t54 -17
q33 0 58 17z" />
    <glyph glyph-name="ccedilla" unicode="&#xe7;" horiz-adv-x="442" 
d="M94.5 32q-46.5 44 -46.5 122v187q0 79 46 123t129 44q82 0 128 -44t46 -123v-42h-90v39q0 39 -22.5 62.5t-61.5 23.5t-62 -23.5t-23 -62.5v-180q0 -38 23 -61.5t62 -23.5t61.5 23t22.5 62v36h90v-40q0 -78 -46 -122t-128 -44t-128.5 44zM264 1l-43 -171h-92l47 186z" />
    <glyph glyph-name="egrave" unicode="&#xe8;" 
d="M137 219v-67q0 -37 23.5 -58.5t62.5 -21.5q40 0 63 22.5t23 63.5h89q-2 -82 -48 -126t-127 -44q-82 0 -128.5 44t-46.5 122v187q0 79 46.5 123t128.5 44t128.5 -44t46.5 -123v-122h-261zM160.5 402.5q-23.5 -22.5 -23.5 -59.5v-50h172v50q0 37 -23.5 59.5t-62.5 22.5
t-62.5 -22.5zM89 704l268 -64v-80l-268 65v79z" />
    <glyph glyph-name="eacute" unicode="&#xe9;" 
d="M137 219v-67q0 -37 23.5 -58.5t62.5 -21.5q40 0 63 22.5t23 63.5h89q-2 -82 -48 -126t-127 -44q-82 0 -128.5 44t-46.5 122v187q0 79 46.5 123t128.5 44t128.5 -44t46.5 -123v-122h-261zM160.5 402.5q-23.5 -22.5 -23.5 -59.5v-50h172v50q0 37 -23.5 59.5t-62.5 22.5
t-62.5 -22.5zM357 704v-79l-268 -65v80z" />
    <glyph glyph-name="ecircumflex" unicode="&#xea;" 
d="M137 219v-67q0 -37 23.5 -58.5t62.5 -21.5q40 0 63 22.5t23 63.5h89q-2 -82 -48 -126t-127 -44q-82 0 -128.5 44t-46.5 122v187q0 79 46.5 123t128.5 44t128.5 -44t46.5 -123v-122h-261zM160.5 402.5q-23.5 -22.5 -23.5 -59.5v-50h172v50q0 37 -23.5 59.5t-62.5 22.5
t-62.5 -22.5zM222 705l135 -61v-83l-135 61l-133 -61v83z" />
    <glyph glyph-name="edieresis" unicode="&#xeb;" 
d="M137 219v-67q0 -37 23.5 -58.5t62.5 -21.5q40 0 63 22.5t23 63.5h89q-2 -82 -48 -126t-127 -44q-82 0 -128.5 44t-46.5 122v187q0 79 46.5 123t128.5 44t128.5 -44t46.5 -123v-122h-261zM160.5 402.5q-23.5 -22.5 -23.5 -59.5v-50h172v50q0 37 -23.5 59.5t-62.5 22.5
t-62.5 -22.5zM95 592.5q-15 14.5 -15 39.5q0 24 15 39t39 15t39 -14.5t15 -39.5t-15 -39.5t-39 -14.5t-39 14.5zM272 592.5q-15 14.5 -15 39.5q0 24 15 39t39 15t39.5 -15t15.5 -39t-15.5 -39t-39.5 -15t-39 14.5z" />
    <glyph glyph-name="igrave" unicode="&#xec;" horiz-adv-x="210" 
d="M149 496v-496h-89v496h89zM-2 695l215 -47v-79l-215 46v80z" />
    <glyph glyph-name="iacute" unicode="&#xed;" horiz-adv-x="210" 
d="M149 496v-496h-89v496h89zM213 695v-80l-215 -46v79z" />
    <glyph glyph-name="icircumflex" unicode="&#xee;" horiz-adv-x="210" 
d="M149 496v-496h-89v496h89zM104 703l109 -49v-83l-109 49l-106 -49v83z" />
    <glyph glyph-name="idieresis" unicode="&#xef;" horiz-adv-x="210" 
d="M149 496v-496h-89v496h89zM-15.5 593q-15.5 15 -15.5 39t15.5 39t39.5 15q25 0 39.5 -14.5t14.5 -39.5q0 -24 -14.5 -39t-39.5 -15q-24 0 -39.5 15zM146.5 593q-15.5 15 -15.5 39t15.5 39t39.5 15q25 0 40.5 -14.5t15.5 -39.5q0 -24 -15.5 -39t-40.5 -15q-24 0 -39.5 15z
" />
    <glyph glyph-name="eth" unicode="&#xf0;" horiz-adv-x="450" 
d="M405 604l-87 -15q44 -48 62.5 -103t18.5 -137v-190q0 -81 -46 -126t-128 -45q-84 0 -130.5 45t-46.5 126v142q0 76 41 120.5t112 45.5q62 0 106 -39q-6 42 -24.5 74t-54.5 65l-169 -28v76l97 17l-61 55v13h102l52 -46l156 26v-76zM287.5 94.5q23.5 23.5 23.5 63.5v174
q-13 24 -36.5 38t-51.5 14q-39 0 -62 -24t-23 -66v-136q0 -40 23 -63.5t63 -23.5t63.5 23.5z" />
    <glyph glyph-name="ntilde" unicode="&#xf1;" horiz-adv-x="459" 
d="M364.5 466.5q39.5 -41.5 39.5 -116.5v-350h-88v335q0 89 -84 89q-26 0 -48.5 -13t-36.5 -35v-376h-90v496h78l4 -36q21 23 51 35.5t63 12.5q72 0 111.5 -41.5zM234 593q-16 5 -32 9.5t-31 4.5q-37 0 -73 -21v77q36 23 73 23q24 0 64 -14q21 -7 35.5 -10.5t31.5 -3.5
q34 0 64 15v-78q-29 -16 -64 -16q-26 0 -68 14z" />
    <glyph glyph-name="ograve" unicode="&#xf2;" 
d="M95.5 31q-47.5 43 -47.5 123v187q0 81 47.5 124t127.5 43t127.5 -43t47.5 -124v-187q0 -80 -47.5 -123t-127.5 -43t-127.5 43zM284.5 95.5q23.5 22.5 23.5 62.5v180q0 41 -23.5 63.5t-61.5 22.5t-61.5 -22.5t-23.5 -63.5v-180q0 -40 23.5 -62.5t61.5 -22.5t61.5 22.5z
M89 704l268 -64v-80l-268 65v79z" />
    <glyph glyph-name="oacute" unicode="&#xf3;" 
d="M95.5 31q-47.5 43 -47.5 123v187q0 81 47.5 124t127.5 43t127.5 -43t47.5 -124v-187q0 -80 -47.5 -123t-127.5 -43t-127.5 43zM284.5 95.5q23.5 22.5 23.5 62.5v180q0 41 -23.5 63.5t-61.5 22.5t-61.5 -22.5t-23.5 -63.5v-180q0 -40 23.5 -62.5t61.5 -22.5t61.5 22.5z
M357 704v-79l-268 -65v80z" />
    <glyph glyph-name="ocircumflex" unicode="&#xf4;" 
d="M95.5 31q-47.5 43 -47.5 123v187q0 81 47.5 124t127.5 43t127.5 -43t47.5 -124v-187q0 -80 -47.5 -123t-127.5 -43t-127.5 43zM284.5 95.5q23.5 22.5 23.5 62.5v180q0 41 -23.5 63.5t-61.5 22.5t-61.5 -22.5t-23.5 -63.5v-180q0 -40 23.5 -62.5t61.5 -22.5t61.5 22.5z
M222 705l135 -61v-83l-135 61l-133 -61v83z" />
    <glyph glyph-name="otilde" unicode="&#xf5;" 
d="M95.5 31q-47.5 43 -47.5 123v187q0 81 47.5 124t127.5 43t127.5 -43t47.5 -124v-187q0 -80 -47.5 -123t-127.5 -43t-127.5 43zM284.5 95.5q23.5 22.5 23.5 62.5v180q0 41 -23.5 63.5t-61.5 22.5t-61.5 -22.5t-23.5 -63.5v-180q0 -40 23.5 -62.5t61.5 -22.5t61.5 22.5z
M225 593q-16 5 -32 9.5t-31 4.5q-37 0 -73 -21v77q36 23 73 23q24 0 64 -14q21 -7 35.5 -10.5t31.5 -3.5q34 0 64 15v-78q-29 -16 -64 -16q-26 0 -68 14z" />
    <glyph glyph-name="odieresis" unicode="&#xf6;" 
d="M95.5 31q-47.5 43 -47.5 123v187q0 81 47.5 124t127.5 43t127.5 -43t47.5 -124v-187q0 -80 -47.5 -123t-127.5 -43t-127.5 43zM284.5 95.5q23.5 22.5 23.5 62.5v180q0 41 -23.5 63.5t-61.5 22.5t-61.5 -22.5t-23.5 -63.5v-180q0 -40 23.5 -62.5t61.5 -22.5t61.5 22.5z
M95 592.5q-15 14.5 -15 39.5q0 24 15 39t39 15t39 -14.5t15 -39.5t-15 -39.5t-39 -14.5t-39 14.5zM272 592.5q-15 14.5 -15 39.5q0 24 15 39t39 15t39.5 -15t15.5 -39t-15.5 -39t-39.5 -15t-39 14.5z" />
    <glyph glyph-name="divide" unicode="&#xf7;" horiz-adv-x="490" 
d="M203.5 477.5q-16.5 16.5 -16.5 41.5q0 26 16.5 42.5t41.5 16.5q26 0 42 -16t16 -43q0 -26 -16 -42t-42 -16q-25 0 -41.5 16.5zM447 370v-84h-405v84h405zM203.5 94.5q-16.5 16.5 -16.5 42.5t16.5 42t41.5 16q26 0 42 -16t16 -42t-16 -42.5t-42 -16.5q-25 0 -41.5 16.5z
" />
    <glyph glyph-name="oslash" unicode="&#xf8;" 
d="M398 341v-187q0 -78 -46 -122t-129 -44q-29 0 -55 6l-18 -47h-80v14l27 68q-49 44 -49 125v187q0 79 46 123t129 44q30 0 57 -6l17 47h80v-14l-27 -70q48 -43 48 -124zM132 157q0 -17 5 -32l118 300q-13 4 -31 4q-42 0 -67 -24.5t-25 -66.5v-181zM315 338q0 17 -5 34
l-116 -300q12 -4 30 -4q42 0 66.5 24t24.5 65v181z" />
    <glyph glyph-name="ugrave" unicode="&#xf9;" horiz-adv-x="459" 
d="M402 496v-496h-78l-4 36q-21 -23 -51 -35.5t-63 -12.5q-73 0 -112 41.5t-39 117.5v349h88v-335q0 -89 84 -89q26 0 48.5 13t36.5 35v376h90zM95 703l268 -64v-80l-268 65v79z" />
    <glyph glyph-name="uacute" unicode="&#xfa;" horiz-adv-x="459" 
d="M402 496v-496h-78l-4 36q-21 -23 -51 -35.5t-63 -12.5q-73 0 -112 41.5t-39 117.5v349h88v-335q0 -89 84 -89q26 0 48.5 13t36.5 35v376h90zM363 703v-79l-268 -65v80z" />
    <glyph glyph-name="ucircumflex" unicode="&#xfb;" horiz-adv-x="459" 
d="M402 496v-496h-78l-4 36q-21 -23 -51 -35.5t-63 -12.5q-73 0 -112 41.5t-39 117.5v349h88v-335q0 -89 84 -89q26 0 48.5 13t36.5 35v376h90zM228 704l135 -61v-83l-135 61l-133 -61v83z" />
    <glyph glyph-name="udieresis" unicode="&#xfc;" horiz-adv-x="459" 
d="M402 496v-496h-78l-4 36q-21 -23 -51 -35.5t-63 -12.5q-73 0 -112 41.5t-39 117.5v349h88v-335q0 -89 84 -89q26 0 48.5 13t36.5 35v376h90zM101 591.5q-15 14.5 -15 39.5q0 24 15 39t39 15t39 -14.5t15 -39.5t-15 -39.5t-39 -14.5t-39 14.5zM278 591.5
q-15 14.5 -15 39.5q0 24 15 39t39 15t39.5 -15t15.5 -39t-15.5 -39t-39.5 -15t-39 14.5z" />
    <glyph glyph-name="yacute" unicode="&#xfd;" horiz-adv-x="464" 
d="M441 496v-13l-178 -546q-19 -59 -51.5 -83t-92.5 -24h-55v82h47q29 0 43 11t23 42l11 38l-165 480v13h94l118 -367l112 367h94zM366 704v-79l-268 -65v80z" />
    <glyph glyph-name="thorn" unicode="&#xfe;" horiz-adv-x="454" 
d="M365 466q42 -42 42 -111v-214q0 -69 -42.5 -111t-112.5 -42q-62 0 -105 35v-193h-90v866h90v-227q42 39 108 39q68 0 110 -42zM317 335q0 41 -22.5 65t-62.5 24q-27 0 -49 -13t-36 -35v-256q14 -22 36.5 -34.5t48.5 -12.5q39 0 62 24t23 66v172z" />
    <glyph glyph-name="ydieresis" unicode="&#xff;" horiz-adv-x="464" 
d="M441 496v-13l-178 -546q-19 -59 -51.5 -83t-92.5 -24h-55v82h47q29 0 43 11t23 42l11 38l-165 480v13h94l118 -367l112 367h94zM104 592.5q-15 14.5 -15 39.5q0 24 15 39t39 15t39 -14.5t15 -39.5t-15 -39.5t-39 -14.5t-39 14.5zM281 592.5q-15 14.5 -15 39.5q0 24 15 39
t39 15t39.5 -15t15.5 -39t-15.5 -39t-39.5 -15t-39 14.5z" />
    <glyph glyph-name="Amacron" unicode="&#x100;" horiz-adv-x="499" 
d="M473 14v-14h-94l-36 146h-186l-36 -146h-94v14l169 642h109zM322 229l-72 294l-72 -294h144zM384 831v-78h-268v78h268z" />
    <glyph glyph-name="amacron" unicode="&#x101;" horiz-adv-x="462" 
d="M457 82v-82h-47q-66 0 -95 40q-43 -52 -126 -52q-69 0 -109.5 38t-40.5 103q0 62 38.5 98t118.5 50l99 17v48q0 40 -20.5 61.5t-59.5 21.5q-42 0 -63 -22.5t-21 -64.5v-10h-89v10q0 83 44 126.5t126 43.5q84 0 127.5 -43.5t43.5 -127.5v-207q0 -48 43 -48h31zM255.5 81.5
q26.5 16.5 39.5 44.5v94l-79 -13q-89 -15 -89 -76q0 -31 19 -48.5t52 -17.5q31 0 57.5 16.5zM355 671v-78h-268v78h268z" />
    <glyph glyph-name="Abreve" unicode="&#x102;" horiz-adv-x="499" 
d="M473 14v-14h-94l-36 146h-186l-36 -146h-94v14l169 642h109zM322 229l-72 294l-72 -294h144zM116 774v80q57 -42 136 -42q37 0 71.5 11t60.5 31v-80q-26 -19 -60 -30.5t-72 -11.5q-80 0 -136 42z" />
    <glyph glyph-name="abreve" unicode="&#x103;" horiz-adv-x="462" 
d="M457 82v-82h-47q-66 0 -95 40q-43 -52 -126 -52q-69 0 -109.5 38t-40.5 103q0 62 38.5 98t118.5 50l99 17v48q0 40 -20.5 61.5t-59.5 21.5q-42 0 -63 -22.5t-21 -64.5v-10h-89v10q0 83 44 126.5t126 43.5q84 0 127.5 -43.5t43.5 -127.5v-207q0 -48 43 -48h31zM255.5 81.5
q26.5 16.5 39.5 44.5v94l-79 -13q-89 -15 -89 -76q0 -31 19 -48.5t52 -17.5q31 0 57.5 16.5zM87 614v80q57 -42 136 -42q37 0 71.5 11t60.5 31v-80q-26 -19 -60 -30.5t-72 -11.5q-80 0 -136 42z" />
    <glyph glyph-name="Aogonek" unicode="&#x104;" horiz-adv-x="499" 
d="M473 14v-14h-94l-36 146h-186l-36 -146h-94v14l169 642h109zM322 229l-72 294l-72 -294h144zM344 -149q-25 21 -25 53q0 22 11.5 41.5t39.5 44.5l74 67l29 -57l-55 -53q-8 -8 -11 -13t-3 -11q0 -18 27 -18h42v-75h-66q-38 0 -63 21z" />
    <glyph glyph-name="aogonek" unicode="&#x105;" horiz-adv-x="462" 
d="M457 82v-82h-47q-66 0 -95 40q-43 -52 -126 -52q-69 0 -109.5 38t-40.5 103q0 62 38.5 98t118.5 50l99 17v48q0 40 -20.5 61.5t-59.5 21.5q-42 0 -63 -22.5t-21 -64.5v-10h-89v10q0 83 44 126.5t126 43.5q84 0 127.5 -43.5t43.5 -127.5v-207q0 -48 43 -48h31zM255.5 81.5
q26.5 16.5 39.5 44.5v94l-79 -13q-89 -15 -89 -76q0 -31 19 -48.5t52 -17.5q31 0 57.5 16.5zM328 -149q-25 21 -25 53q0 22 11.5 41.5t39.5 44.5l74 67l29 -57l-55 -53q-8 -8 -11 -13t-3 -11q0 -18 27 -18h42v-75h-66q-38 0 -63 21z" />
    <glyph glyph-name="Cacute" unicode="&#x106;" horiz-adv-x="502" 
d="M112 38.5q-53 50.5 -53 138.5v302q0 88 53 138.5t145 50.5q98 0 147.5 -52.5t49.5 -155.5v-60h-92v60q0 123 -106 123q-50 0 -77.5 -29t-27.5 -82v-289q0 -53 27.5 -81.5t77.5 -28.5q106 0 106 119v62h92v-62q0 -100 -50 -152t-147 -52q-92 0 -145 50.5zM392 864v-79
l-268 -65v80z" />
    <glyph glyph-name="cacute" unicode="&#x107;" horiz-adv-x="442" 
d="M94.5 32q-46.5 44 -46.5 122v187q0 79 46 123t129 44q82 0 128 -44t46 -123v-42h-90v39q0 39 -22.5 62.5t-61.5 23.5t-62 -23.5t-23 -62.5v-180q0 -38 23 -61.5t62 -23.5t61.5 23t22.5 62v36h90v-40q0 -78 -46 -122t-128 -44t-128.5 44zM352 704v-79l-268 -65v80z" />
    <glyph glyph-name="Ccircumflex" unicode="&#x108;" horiz-adv-x="502" 
d="M112 38.5q-53 50.5 -53 138.5v302q0 88 53 138.5t145 50.5q98 0 147.5 -52.5t49.5 -155.5v-60h-92v60q0 123 -106 123q-50 0 -77.5 -29t-27.5 -82v-289q0 -53 27.5 -81.5t77.5 -28.5q106 0 106 119v62h92v-62q0 -100 -50 -152t-147 -52q-92 0 -145 50.5zM257 865l135 -61
v-83l-135 61l-133 -61v83z" />
    <glyph glyph-name="ccircumflex" unicode="&#x109;" horiz-adv-x="442" 
d="M94.5 32q-46.5 44 -46.5 122v187q0 79 46 123t129 44q82 0 128 -44t46 -123v-42h-90v39q0 39 -22.5 62.5t-61.5 23.5t-62 -23.5t-23 -62.5v-180q0 -38 23 -61.5t62 -23.5t61.5 23t22.5 62v36h90v-40q0 -78 -46 -122t-128 -44t-128.5 44zM217 705l135 -61v-83l-135 61
l-133 -61v83z" />
    <glyph glyph-name="Cdotaccent" unicode="&#x10a;" horiz-adv-x="502" 
d="M112 38.5q-53 50.5 -53 138.5v302q0 88 53 138.5t145 50.5q98 0 147.5 -52.5t49.5 -155.5v-60h-92v60q0 123 -106 123q-50 0 -77.5 -29t-27.5 -82v-289q0 -53 27.5 -81.5t77.5 -28.5q106 0 106 119v62h92v-62q0 -100 -50 -152t-147 -52q-92 0 -145 50.5zM214.5 748
q-17.5 17 -17.5 44t17 44t44 17t44 -16.5t17 -44.5q0 -27 -17 -44t-44 -17q-26 0 -43.5 17z" />
    <glyph glyph-name="cdotaccent" unicode="&#x10b;" horiz-adv-x="442" 
d="M94.5 32q-46.5 44 -46.5 122v187q0 79 46 123t129 44q82 0 128 -44t46 -123v-42h-90v39q0 39 -22.5 62.5t-61.5 23.5t-62 -23.5t-23 -62.5v-180q0 -38 23 -61.5t62 -23.5t61.5 23t22.5 62v36h90v-40q0 -78 -46 -122t-128 -44t-128.5 44zM174.5 588q-17.5 17 -17.5 44
t17 44t44 17t44 -16.5t17 -44.5q0 -27 -17 -44t-44 -17q-26 0 -43.5 17z" />
    <glyph glyph-name="Ccaron" unicode="&#x10c;" horiz-adv-x="502" 
d="M112 38.5q-53 50.5 -53 138.5v302q0 88 53 138.5t145 50.5q98 0 147.5 -52.5t49.5 -155.5v-60h-92v60q0 123 -106 123q-50 0 -77.5 -29t-27.5 -82v-289q0 -53 27.5 -81.5t77.5 -28.5q106 0 106 119v62h92v-62q0 -100 -50 -152t-147 -52q-92 0 -145 50.5zM124 864l133 -60
l135 60v-83l-135 -61l-133 61v83z" />
    <glyph glyph-name="ccaron" unicode="&#x10d;" horiz-adv-x="442" 
d="M94.5 32q-46.5 44 -46.5 122v187q0 79 46 123t129 44q82 0 128 -44t46 -123v-42h-90v39q0 39 -22.5 62.5t-61.5 23.5t-62 -23.5t-23 -62.5v-180q0 -38 23 -61.5t62 -23.5t61.5 23t22.5 62v36h90v-40q0 -78 -46 -122t-128 -44t-128.5 44zM84 704l133 -60l135 60v-83
l-135 -61l-133 61v83z" />
    <glyph glyph-name="Dcaron" unicode="&#x10e;" horiz-adv-x="497" 
d="M238 656q95 0 147.5 -51t52.5 -143v-269q0 -91 -53 -142t-147 -51h-178v656h178zM319 114q27 29 27 84v260q0 55 -27 84t-78 29h-88v-486h88q51 0 78 29zM84 864l133 -60l135 60v-83l-135 -61l-133 61v83z" />
    <glyph glyph-name="dcaron" unicode="&#x10f;" horiz-adv-x="624" 
d="M398 696v-696h-78l-3 29q-44 -41 -112 -41q-70 0 -113.5 43.5t-43.5 115.5v203q0 71 43.5 114.5t112.5 43.5q64 0 105 -38v226h89zM272.5 86q22.5 13 36.5 36v252q-14 23 -36.5 36.5t-49.5 13.5q-39 0 -62 -24t-23 -66v-171q0 -42 23 -66t62 -24q27 0 49.5 13zM607 696
l-56 -185h-77l32 185h101z" />
    <glyph glyph-name="Dcroat" unicode="&#x110;" horiz-adv-x="510" 
d="M398.5 605q52.5 -51 52.5 -143v-269q0 -91 -53 -142t-147 -51h-178v287h-63v82h63v287h178q95 0 147.5 -51zM359 458q0 55 -27 84t-78 29h-88v-202h103v-82h-103v-202h88q51 0 78 29t27 84v260z" />
    <glyph glyph-name="dcroat" unicode="&#x111;" horiz-adv-x="464" 
d="M461 567h-63v-567h-78l-3 30q-44 -42 -111 -42q-71 0 -114.5 44t-43.5 115v192q0 71 43.5 115t112.5 44q64 0 105 -39v108h-120v77h120v52h89v-52h63v-77zM272 86.5q23 13.5 37 35.5v243q-14 22 -37 35t-51 13q-38 0 -60.5 -24t-22.5 -65v-161q0 -42 23 -66t62 -24
q26 0 49 13.5z" />
    <glyph glyph-name="Emacron" unicode="&#x112;" horiz-adv-x="429" 
d="M400 656v-85h-247v-201h232v-84h-232v-201h247v-85h-340v656h340zM364 831v-78h-268v78h268z" />
    <glyph glyph-name="emacron" unicode="&#x113;" 
d="M137 219v-67q0 -37 23.5 -58.5t62.5 -21.5q40 0 63 22.5t23 63.5h89q-2 -82 -48 -126t-127 -44q-82 0 -128.5 44t-46.5 122v187q0 79 46.5 123t128.5 44t128.5 -44t46.5 -123v-122h-261zM160.5 402.5q-23.5 -22.5 -23.5 -59.5v-50h172v50q0 37 -23.5 59.5t-62.5 22.5
t-62.5 -22.5zM357 671v-78h-268v78h268z" />
    <glyph glyph-name="Ebreve" unicode="&#x114;" horiz-adv-x="429" 
d="M400 656v-85h-247v-201h232v-84h-232v-201h247v-85h-340v656h340zM96 774v80q57 -42 136 -42q37 0 71.5 11t60.5 31v-80q-26 -19 -60 -30.5t-72 -11.5q-80 0 -136 42z" />
    <glyph glyph-name="ebreve" unicode="&#x115;" 
d="M137 219v-67q0 -37 23.5 -58.5t62.5 -21.5q40 0 63 22.5t23 63.5h89q-2 -82 -48 -126t-127 -44q-82 0 -128.5 44t-46.5 122v187q0 79 46.5 123t128.5 44t128.5 -44t46.5 -123v-122h-261zM160.5 402.5q-23.5 -22.5 -23.5 -59.5v-50h172v50q0 37 -23.5 59.5t-62.5 22.5
t-62.5 -22.5zM89 614v80q57 -42 136 -42q37 0 71.5 11t60.5 31v-80q-26 -19 -60 -30.5t-72 -11.5q-80 0 -136 42z" />
    <glyph glyph-name="Edotaccent" unicode="&#x116;" horiz-adv-x="429" 
d="M400 656v-85h-247v-201h232v-84h-232v-201h247v-85h-340v656h340zM186.5 748q-17.5 17 -17.5 44t17 44t44 17t44 -16.5t17 -44.5q0 -27 -17 -44t-44 -17q-26 0 -43.5 17z" />
    <glyph glyph-name="edotaccent" unicode="&#x117;" 
d="M137 219v-67q0 -37 23.5 -58.5t62.5 -21.5q40 0 63 22.5t23 63.5h89q-2 -82 -48 -126t-127 -44q-82 0 -128.5 44t-46.5 122v187q0 79 46.5 123t128.5 44t128.5 -44t46.5 -123v-122h-261zM160.5 402.5q-23.5 -22.5 -23.5 -59.5v-50h172v50q0 37 -23.5 59.5t-62.5 22.5
t-62.5 -22.5zM179.5 588q-17.5 17 -17.5 44t17 44t44 17t44 -16.5t17 -44.5q0 -27 -17 -44t-44 -17q-26 0 -43.5 17z" />
    <glyph glyph-name="Eogonek" unicode="&#x118;" horiz-adv-x="429" 
d="M400 656v-85h-247v-201h232v-84h-232v-201h247v-85h-340v656h340zM271 -149q-25 21 -25 53q0 22 11.5 41.5t39.5 44.5l74 67l29 -57l-55 -53q-8 -8 -11 -13t-3 -11q0 -18 27 -18h42v-75h-66q-38 0 -63 21z" />
    <glyph glyph-name="eogonek" unicode="&#x119;" 
d="M137 219v-67q0 -37 23.5 -58.5t62.5 -21.5q40 0 63 22.5t23 63.5h89q-2 -82 -48 -126t-127 -44q-82 0 -128.5 44t-46.5 122v187q0 79 46.5 123t128.5 44t128.5 -44t46.5 -123v-122h-261zM160.5 402.5q-23.5 -22.5 -23.5 -59.5v-50h172v50q0 37 -23.5 59.5t-62.5 22.5
t-62.5 -22.5zM209.5 -148q-24.5 22 -24.5 57q0 21 11 40t37 47l64 70l65 -22l-73 -85q-10 -12 -14.5 -19.5t-4.5 -14.5q0 -9 7.5 -14.5t20.5 -5.5h41v-75h-65q-40 0 -64.5 22z" />
    <glyph glyph-name="Ecaron" unicode="&#x11a;" horiz-adv-x="429" 
d="M400 656v-85h-247v-201h232v-84h-232v-201h247v-85h-340v656h340zM96 864l133 -60l135 60v-83l-135 -61l-133 61v83z" />
    <glyph glyph-name="ecaron" unicode="&#x11b;" 
d="M137 219v-67q0 -37 23.5 -58.5t62.5 -21.5q40 0 63 22.5t23 63.5h89q-2 -82 -48 -126t-127 -44q-82 0 -128.5 44t-46.5 122v187q0 79 46.5 123t128.5 44t128.5 -44t46.5 -123v-122h-261zM160.5 402.5q-23.5 -22.5 -23.5 -59.5v-50h172v50q0 37 -23.5 59.5t-62.5 22.5
t-62.5 -22.5zM89 704l133 -60l135 60v-83l-135 -61l-133 61v83z" />
    <glyph glyph-name="Gcircumflex" unicode="&#x11c;" horiz-adv-x="521" 
d="M366 438v34q0 53 -28 82t-78 29q-51 0 -80 -29t-29 -81v-290q0 -52 28 -80.5t80 -28.5q71 0 108 55v135h-132v83h222v-347h-75l-4 36q-48 -48 -123 -48q-58 0 -102.5 23.5t-69 66.5t-24.5 99v302q0 88 54 138.5t147 50.5q94 0 146 -51.5t52 -144.5v-34h-92zM259 865
l135 -61v-83l-135 61l-133 -61v83z" />
    <glyph glyph-name="gcircumflex" unicode="&#x11d;" horiz-adv-x="454" 
d="M398 496v-511q0 -80 -45.5 -123.5t-130.5 -43.5t-130.5 43.5t-45.5 125.5v10h89v-10q0 -85 88 -85q41 0 63.5 21.5t22.5 61.5v83q-45 -40 -106 -40q-71 0 -113.5 43.5t-42.5 116.5v167q0 70 43 111.5t115 41.5t111 -47l4 35h78zM272.5 124q22.5 14 36.5 38v210
q-14 24 -36.5 38t-48.5 14q-40 0 -63.5 -25t-23.5 -67v-130q0 -42 23.5 -67t63.5 -25q26 0 48.5 14zM218 705l135 -61v-83l-135 61l-133 -61v83z" />
    <glyph glyph-name="Gbreve" unicode="&#x11e;" horiz-adv-x="521" 
d="M366 438v34q0 53 -28 82t-78 29q-51 0 -80 -29t-29 -81v-290q0 -52 28 -80.5t80 -28.5q71 0 108 55v135h-132v83h222v-347h-75l-4 36q-48 -48 -123 -48q-58 0 -102.5 23.5t-69 66.5t-24.5 99v302q0 88 54 138.5t147 50.5q94 0 146 -51.5t52 -144.5v-34h-92zM126 774v80
q57 -42 136 -42q37 0 71.5 11t60.5 31v-80q-26 -19 -60 -30.5t-72 -11.5q-80 0 -136 42z" />
    <glyph glyph-name="gbreve" unicode="&#x11f;" horiz-adv-x="454" 
d="M398 496v-511q0 -80 -45.5 -123.5t-130.5 -43.5t-130.5 43.5t-45.5 125.5v10h89v-10q0 -85 88 -85q41 0 63.5 21.5t22.5 61.5v83q-45 -40 -106 -40q-71 0 -113.5 43.5t-42.5 116.5v167q0 70 43 111.5t115 41.5t111 -47l4 35h78zM272.5 124q22.5 14 36.5 38v210
q-14 24 -36.5 38t-48.5 14q-40 0 -63.5 -25t-23.5 -67v-130q0 -42 23.5 -67t63.5 -25q26 0 48.5 14zM85 614v80q57 -42 136 -42q37 0 71.5 11t60.5 31v-80q-26 -19 -60 -30.5t-72 -11.5q-80 0 -136 42z" />
    <glyph glyph-name="Gdotaccent" unicode="&#x120;" horiz-adv-x="521" 
d="M366 438v34q0 53 -28 82t-78 29q-51 0 -80 -29t-29 -81v-290q0 -52 28 -80.5t80 -28.5q71 0 108 55v135h-132v83h222v-347h-75l-4 36q-48 -48 -123 -48q-58 0 -102.5 23.5t-69 66.5t-24.5 99v302q0 88 54 138.5t147 50.5q94 0 146 -51.5t52 -144.5v-34h-92zM216.5 748
q-17.5 17 -17.5 44t17 44t44 17t44 -16.5t17 -44.5q0 -27 -17 -44t-44 -17q-26 0 -43.5 17z" />
    <glyph glyph-name="gdotaccent" unicode="&#x121;" horiz-adv-x="454" 
d="M398 496v-511q0 -80 -45.5 -123.5t-130.5 -43.5t-130.5 43.5t-45.5 125.5v10h89v-10q0 -85 88 -85q41 0 63.5 21.5t22.5 61.5v83q-45 -40 -106 -40q-71 0 -113.5 43.5t-42.5 116.5v167q0 70 43 111.5t115 41.5t111 -47l4 35h78zM272.5 124q22.5 14 36.5 38v210
q-14 24 -36.5 38t-48.5 14q-40 0 -63.5 -25t-23.5 -67v-130q0 -42 23.5 -67t63.5 -25q26 0 48.5 14zM175.5 588q-17.5 17 -17.5 44t17 44t44 17t44 -16.5t17 -44.5q0 -27 -17 -44t-44 -17q-26 0 -43.5 17z" />
    <glyph glyph-name="uni0122" unicode="&#x122;" horiz-adv-x="521" 
d="M366 438v34q0 53 -28 82t-78 29q-51 0 -80 -29t-29 -81v-290q0 -52 28 -80.5t80 -28.5q71 0 108 55v135h-132v83h222v-347h-75l-4 36q-48 -48 -123 -48q-58 0 -102.5 23.5t-69 66.5t-24.5 99v302q0 88 54 138.5t147 50.5q94 0 146 -51.5t52 -144.5v-34h-92zM303 -58
l-47 -154h-84l41 154h90z" />
    <glyph glyph-name="uni0123" unicode="&#x123;" horiz-adv-x="454" 
d="M398 496v-511q0 -80 -45.5 -123.5t-130.5 -43.5t-130.5 43.5t-45.5 125.5v10h89v-10q0 -85 88 -85q41 0 63.5 21.5t22.5 61.5v83q-45 -40 -106 -40q-71 0 -113.5 43.5t-42.5 116.5v167q0 70 43 111.5t115 41.5t111 -47l4 35h78zM272.5 124q22.5 14 36.5 38v210
q-14 24 -36.5 38t-48.5 14q-40 0 -63.5 -25t-23.5 -67v-130q0 -42 23.5 -67t63.5 -25q26 0 48.5 14zM296 709l-40 -155h-94l48 155h86z" />
    <glyph glyph-name="Hcircumflex" unicode="&#x124;" horiz-adv-x="499" 
d="M153 656v-286h193v286h93v-656h-93v286h-193v-286h-93v656h93zM248 865l135 -61v-83l-135 61l-133 -61v83z" />
    <glyph glyph-name="hcircumflex" unicode="&#x125;" horiz-adv-x="459" 
d="M364 467q40 -41 40 -117v-350h-88v335q0 89 -84 89q-25 0 -48 -13t-37 -36v-375h-90v696h90v-229q44 41 106 41q71 0 111 -41zM101 875l135 -61v-83l-135 61l-133 -61v83z" />
    <glyph glyph-name="Hbar" unicode="&#x126;" horiz-adv-x="499" 
d="M482 443h-43v-443h-93v256h-194v-256h-92v443h-44v82h44v131h92v-131h194v131h93v-131h43v-82zM346 443h-194v-105h194v105z" />
    <glyph glyph-name="hbar" unicode="&#x127;" horiz-adv-x="469" 
d="M374 457q40 -41 40 -118v-339h-88v324q0 89 -84 89q-25 0 -48 -13t-37 -35v-365h-90v567h-63v77h63v52h90v-52h121v-77h-121v-109q43 40 106 40q71 0 111 -41z" />
    <glyph glyph-name="Itilde" unicode="&#x128;" horiz-adv-x="220" 
d="M156 656v-656h-92v656h92zM112 753q-13 5 -26 9.5t-25 4.5q-32 0 -58 -19v78q27 20 58 20q13 0 25 -3.5t29 -10.5q32 -14 52 -14q28 0 51 13v-79q-24 -13 -51 -13q-21 0 -55 14z" />
    <glyph glyph-name="itilde" unicode="&#x129;" horiz-adv-x="210" 
d="M149 496v-496h-89v496h89zM107 593q-13 5 -26 9.5t-25 4.5q-32 0 -58 -19v78q27 20 58 20q13 0 25 -3.5t29 -10.5q32 -14 52 -14q28 0 51 13v-79q-24 -13 -51 -13q-21 0 -55 14z" />
    <glyph glyph-name="Imacron" unicode="&#x12a;" horiz-adv-x="220" 
d="M156 656v-656h-92v656h92zM218 831v-78h-215v78h215z" />
    <glyph glyph-name="imacron" unicode="&#x12b;" horiz-adv-x="210" 
d="M149 496v-496h-89v496h89zM213 671v-78h-215v78h215z" />
    <glyph glyph-name="Ibreve" unicode="&#x12c;" horiz-adv-x="220" 
d="M156 656v-656h-92v656h92zM3 773v81q19 -20 47.5 -31t61.5 -11q66 0 106 42v-81q-19 -19 -46.5 -29.5t-59.5 -10.5q-69 0 -109 40z" />
    <glyph glyph-name="ibreve" unicode="&#x12d;" horiz-adv-x="210" 
d="M149 496v-496h-89v496h89zM-2 613v81q19 -20 47.5 -31t61.5 -11q66 0 106 42v-81q-19 -19 -46.5 -29.5t-59.5 -10.5q-69 0 -109 40z" />
    <glyph glyph-name="Iogonek" unicode="&#x12e;" horiz-adv-x="220" 
d="M156 656v-656h-92v656h92zM27 -149q-25 21 -25 53q0 22 11.5 41.5t39.5 44.5l74 67l29 -57l-55 -53q-8 -8 -11 -13t-3 -11q0 -18 27 -18h42v-75h-66q-38 0 -63 21z" />
    <glyph glyph-name="iogonek" unicode="&#x12f;" horiz-adv-x="210" 
d="M149 496v-496h-89v496h89zM61.5 588q-17.5 17 -17.5 44t17 44t44 17t44 -16.5t17 -44.5q0 -27 -17 -44t-44 -17q-26 0 -43.5 17zM20 -149q-25 21 -25 53q0 22 11.5 41.5t39.5 44.5l74 67l29 -57l-55 -53q-8 -8 -11 -13t-3 -11q0 -18 27 -18h42v-75h-66q-38 0 -63 21z" />
    <glyph glyph-name="Idotaccent" unicode="&#x130;" horiz-adv-x="220" 
d="M156 656v-656h-92v656h92zM66.5 748q-17.5 17 -17.5 44t17 44t44 17t44 -16.5t17 -44.5q0 -27 -17 -44t-44 -17q-26 0 -43.5 17z" />
    <glyph glyph-name="dotlessi" unicode="&#x131;" horiz-adv-x="210" 
d="M149 496v-496h-89v496h89z" />
    <glyph glyph-name="IJ" unicode="&#x132;" horiz-adv-x="568" 
d="M153 656v-656h-93v656h93zM326 85q43 0 66 23.5t23 66.5v396h-170v85h263v-488q0 -77 -48.5 -122.5t-133.5 -45.5h-81v85h81z" />
    <glyph glyph-name="ij" unicode="&#x133;" horiz-adv-x="420" 
d="M149 496v-496h-89v496h89zM61.5 588q-17.5 17 -17.5 44t17 44t44 17t44 -16.5t17 -44.5q0 -27 -17 -44t-44 -17q-26 0 -43.5 17zM207 -88q30 0 46.5 17.5t16.5 48.5v518h89v-524q0 -66 -38 -104t-103 -38h-59v82h48zM271.5 588q-17.5 17 -17.5 44t17 44t44 17t44 -16.5
t17 -44.5q0 -27 -17 -44t-44 -17q-26 0 -43.5 17z" />
    <glyph glyph-name="Jcircumflex" unicode="&#x134;" horiz-adv-x="459" 
d="M84.5 36q-47.5 48 -47.5 134v86h92v-86q0 -47 23 -72t66 -25t66 24t23 68v406h-201v85h293v-499q0 -78 -49 -123.5t-132 -45.5q-86 0 -133.5 48zM245 865l135 -61v-83l-135 61l-133 -61v83z" />
    <glyph glyph-name="jcircumflex" unicode="&#x135;" horiz-adv-x="210" 
d="M-3 -88q30 0 46.5 17.5t16.5 48.5v518h89v-524q0 -66 -38 -104t-103 -38h-59v82h48zM104 703l109 -49v-83l-109 49l-106 -49v83z" />
    <glyph glyph-name="uni0136" unicode="&#x136;" horiz-adv-x="496" 
d="M461 14v-14h-94l-149 279l-65 -99v-180h-93v656h93v-313l210 313h96v-14l-183 -278zM290 -58l-47 -154h-84l41 154h90z" />
    <glyph glyph-name="uni0137" unicode="&#x137;" 
d="M427 13v-13h-97l-117 212l-66 -87v-125h-90v696h90v-428l177 228h97v-13l-149 -198zM265 -58l-47 -154h-84l41 154h90z" />
    <glyph glyph-name="Lacute" unicode="&#x139;" horiz-adv-x="416" 
d="M153 656v-571h253v-85h-346v656h93zM238 864v-79l-268 -65v80z" />
    <glyph glyph-name="lacute" unicode="&#x13a;" horiz-adv-x="232" 
d="M90.5 29.5q-30.5 29.5 -30.5 85.5v581h89v-566q0 -25 9.5 -36.5t33.5 -11.5h36v-82h-50q-57 0 -87.5 29.5zM213 865v-80l-215 -46v79z" />
    <glyph glyph-name="uni013B" unicode="&#x13b;" horiz-adv-x="416" 
d="M153 656v-571h253v-85h-346v656h93zM275 -58l-47 -154h-84l41 154h90z" />
    <glyph glyph-name="uni013C" unicode="&#x13c;" horiz-adv-x="232" 
d="M90.5 29.5q-30.5 29.5 -30.5 85.5v581h89v-566q0 -25 9.5 -36.5t33.5 -11.5h36v-82h-50q-57 0 -87.5 29.5zM213 -58l-47 -154h-84l41 154h90z" />
    <glyph glyph-name="Lcaron" unicode="&#x13d;" horiz-adv-x="416" 
d="M153 656v-571h253v-85h-346v656h93zM382 656l-56 -185h-77l32 185h101z" />
    <glyph glyph-name="lcaron" unicode="&#x13e;" horiz-adv-x="382" 
d="M90.5 29.5q-30.5 29.5 -30.5 85.5v581h89v-566q0 -25 9.5 -36.5t33.5 -11.5h36v-82h-50q-57 0 -87.5 29.5zM364 696l-56 -185h-77l32 185h101z" />
    <glyph glyph-name="Ldot" unicode="&#x13f;" horiz-adv-x="416" 
d="M153 656v-571h253v-85h-346v656h93zM272 320q-17 17 -17 42q0 26 16.5 42.5t42.5 16.5t42.5 -16.5t16.5 -42.5t-16.5 -42.5t-42.5 -16.5q-25 0 -42 17z" />
    <glyph glyph-name="ldot" unicode="&#x140;" horiz-adv-x="334" 
d="M90.5 29.5q-30.5 29.5 -30.5 85.5v581h89v-566q0 -25 9.5 -36.5t33.5 -11.5h36v-82h-50q-57 0 -87.5 29.5zM232 272q-16 16 -16 42q0 27 16 42.5t40 15.5q25 0 41 -15.5t16 -42.5q0 -26 -16 -42t-41 -16q-24 0 -40 16z" />
    <glyph glyph-name="Lslash" unicode="&#x141;" horiz-adv-x="429" 
d="M419 85v-85h-346v287l-63 -20v86l63 20v283h93v-257l143 47v-86l-143 -47v-228h253z" />
    <glyph glyph-name="lslash" unicode="&#x142;" horiz-adv-x="255" 
d="M158 348v-218q0 -25 9.5 -36.5t33.5 -11.5h36v-82h-50q-57 0 -87.5 29.5t-30.5 85.5v209l-59 -19v85l59 19v287h89v-262l87 28v-85z" />
    <glyph glyph-name="Nacute" unicode="&#x143;" horiz-adv-x="499" 
d="M439 656v-656h-98l-192 462v-462h-89v656h98l192 -466v466h89zM383 864v-79l-268 -65v80z" />
    <glyph glyph-name="nacute" unicode="&#x144;" horiz-adv-x="459" 
d="M364.5 466.5q39.5 -41.5 39.5 -116.5v-350h-88v335q0 89 -84 89q-26 0 -48.5 -13t-36.5 -35v-376h-90v496h78l4 -36q21 23 51 35.5t63 12.5q72 0 111.5 -41.5zM366 704v-79l-268 -65v80z" />
    <glyph glyph-name="uni0145" unicode="&#x145;" horiz-adv-x="499" 
d="M439 656v-656h-98l-192 462v-462h-89v656h98l192 -466v466h89zM293 -58l-47 -154h-84l41 154h90z" />
    <glyph glyph-name="uni0146" unicode="&#x146;" horiz-adv-x="459" 
d="M364.5 466.5q39.5 -41.5 39.5 -116.5v-350h-88v335q0 89 -84 89q-26 0 -48.5 -13t-36.5 -35v-376h-90v496h78l4 -36q21 23 51 35.5t63 12.5q72 0 111.5 -41.5zM276 -58l-47 -154h-84l41 154h90z" />
    <glyph glyph-name="Ncaron" unicode="&#x147;" horiz-adv-x="499" 
d="M439 656v-656h-98l-192 462v-462h-89v656h98l192 -466v466h89zM115 864l133 -60l135 60v-83l-135 -61l-133 61v83z" />
    <glyph glyph-name="ncaron" unicode="&#x148;" horiz-adv-x="459" 
d="M364.5 466.5q39.5 -41.5 39.5 -116.5v-350h-88v335q0 89 -84 89q-26 0 -48.5 -13t-36.5 -35v-376h-90v496h78l4 -36q21 23 51 35.5t63 12.5q72 0 111.5 -41.5zM98 704l133 -60l135 60v-83l-135 -61l-133 61v83z" />
    <glyph glyph-name="Eng" unicode="&#x14a;" horiz-adv-x="499" 
d="M439 656v-680q0 -69 -36.5 -107.5t-100.5 -38.5h-63v84h48q59 0 63 67l-201 480v-461h-89v656h98l192 -462v462h89z" />
    <glyph glyph-name="eng" unicode="&#x14b;" horiz-adv-x="459" 
d="M364.5 466.5q39.5 -41.5 39.5 -116.5v-365q0 -73 -37.5 -114t-104.5 -41h-57v82h44q67 0 67 80v343q0 89 -84 89q-26 0 -48.5 -13t-36.5 -35v-376h-90v496h78l4 -36q21 23 51 35.5t63 12.5q72 0 111.5 -41.5z" />
    <glyph glyph-name="Omacron" unicode="&#x14c;" horiz-adv-x="512" 
d="M112 38.5q-53 50.5 -53 138.5v302q0 87 53 138t144 51t144 -51t53 -138v-302q0 -87 -53 -138t-144 -51t-144 50.5zM333.5 102q27.5 29 27.5 81v289q0 53 -27.5 82t-77.5 29t-77.5 -29t-27.5 -82v-289q0 -52 27.5 -81t77.5 -29t77.5 29zM390 831v-78h-268v78h268z" />
    <glyph glyph-name="omacron" unicode="&#x14d;" 
d="M95.5 31q-47.5 43 -47.5 123v187q0 81 47.5 124t127.5 43t127.5 -43t47.5 -124v-187q0 -80 -47.5 -123t-127.5 -43t-127.5 43zM284.5 95.5q23.5 22.5 23.5 62.5v180q0 41 -23.5 63.5t-61.5 22.5t-61.5 -22.5t-23.5 -63.5v-180q0 -40 23.5 -62.5t61.5 -22.5t61.5 22.5z
M357 671v-78h-268v78h268z" />
    <glyph glyph-name="Obreve" unicode="&#x14e;" horiz-adv-x="512" 
d="M112 38.5q-53 50.5 -53 138.5v302q0 87 53 138t144 51t144 -51t53 -138v-302q0 -87 -53 -138t-144 -51t-144 50.5zM333.5 102q27.5 29 27.5 81v289q0 53 -27.5 82t-77.5 29t-77.5 -29t-27.5 -82v-289q0 -52 27.5 -81t77.5 -29t77.5 29zM122 774v80q57 -42 136 -42
q37 0 71.5 11t60.5 31v-80q-26 -19 -60 -30.5t-72 -11.5q-80 0 -136 42z" />
    <glyph glyph-name="obreve" unicode="&#x14f;" 
d="M95.5 31q-47.5 43 -47.5 123v187q0 81 47.5 124t127.5 43t127.5 -43t47.5 -124v-187q0 -80 -47.5 -123t-127.5 -43t-127.5 43zM284.5 95.5q23.5 22.5 23.5 62.5v180q0 41 -23.5 63.5t-61.5 22.5t-61.5 -22.5t-23.5 -63.5v-180q0 -40 23.5 -62.5t61.5 -22.5t61.5 22.5z
M89 614v80q57 -42 136 -42q37 0 71.5 11t60.5 31v-80q-26 -19 -60 -30.5t-72 -11.5q-80 0 -136 42z" />
    <glyph glyph-name="Ohungarumlaut" unicode="&#x150;" horiz-adv-x="512" 
d="M112 38.5q-53 50.5 -53 138.5v302q0 87 53 138t144 51t144 -51t53 -138v-302q0 -87 -53 -138t-144 -51t-144 50.5zM333.5 102q27.5 29 27.5 81v289q0 53 -27.5 82t-77.5 29t-77.5 -29t-27.5 -82v-289q0 -52 27.5 -81t77.5 -29t77.5 29zM283 865v-82l-185 -63v81zM482 865
v-82l-185 -63v81z" />
    <glyph glyph-name="ohungarumlaut" unicode="&#x151;" 
d="M95.5 31q-47.5 43 -47.5 123v187q0 81 47.5 124t127.5 43t127.5 -43t47.5 -124v-187q0 -80 -47.5 -123t-127.5 -43t-127.5 43zM284.5 95.5q23.5 22.5 23.5 62.5v180q0 41 -23.5 63.5t-61.5 22.5t-61.5 -22.5t-23.5 -63.5v-180q0 -40 23.5 -62.5t61.5 -22.5t61.5 22.5z
M250 705v-82l-185 -63v81zM449 705v-82l-185 -63v81z" />
    <glyph glyph-name="OE" unicode="&#x152;" horiz-adv-x="708" 
d="M112 51q-53 51 -53 142v269q0 92 52.5 143t147.5 51h420v-85h-242v-201h227v-84h-227v-201h242v-85h-420q-94 0 -147 51zM345 571h-89q-51 0 -78 -29t-27 -84v-260q0 -55 27 -84t78 -29h89v486z" />
    <glyph glyph-name="oe" unicode="&#x153;" horiz-adv-x="711" 
d="M406 219v-65q0 -38 22.5 -60t61.5 -22q38 0 61 23t23 63h89q-2 -80 -47.5 -125t-124.5 -45q-44 0 -79 17t-57 48q-21 -31 -55.5 -48t-78.5 -17q-79 0 -126 46.5t-47 124.5v177q0 79 46.5 125.5t126.5 46.5q44 0 78.5 -17t55.5 -48q22 31 57 48t79 17q79 0 125.5 -44.5
t46.5 -122.5v-122h-257zM428.5 401.5q-22.5 -23.5 -22.5 -62.5v-47h168v47q0 39 -23 62.5t-61 23.5q-39 0 -61.5 -23.5zM305 338q0 39 -22.5 62.5t-60.5 23.5q-39 0 -61.5 -23.5t-22.5 -62.5v-180q0 -38 23 -61.5t61 -23.5t60.5 23t22.5 62v180z" />
    <glyph glyph-name="Racute" unicode="&#x154;" horiz-adv-x="486" 
d="M415.5 334.5q-35.5 -44.5 -104.5 -55.5l140 -265v-14h-91l-145 275h-62v-275h-93v656h203q91 0 139.5 -46.5t48.5 -134.5v-20q0 -76 -35.5 -120.5zM359 475q0 96 -103 96h-103v-213h103q103 0 103 97v20zM359 864v-79l-268 -65v80z" />
    <glyph glyph-name="racute" unicode="&#x155;" horiz-adv-x="307" 
d="M297 496v-81h-57q-67 0 -91 -53v-362h-89v496h77l4 -38q43 38 99 38h57zM309 704v-79l-268 -65v80z" />
    <glyph glyph-name="uni0156" unicode="&#x156;" horiz-adv-x="486" 
d="M415.5 334.5q-35.5 -44.5 -104.5 -55.5l140 -265v-14h-91l-145 275h-62v-275h-93v656h203q91 0 139.5 -46.5t48.5 -134.5v-20q0 -76 -35.5 -120.5zM359 475q0 96 -103 96h-103v-213h103q103 0 103 97v20zM289 -58l-47 -154h-84l41 154h90z" />
    <glyph glyph-name="uni0157" unicode="&#x157;" horiz-adv-x="307" 
d="M297 496v-81h-57q-67 0 -91 -53v-362h-89v496h77l4 -38q43 38 99 38h57zM150 -58l-47 -154h-84l41 154h90z" />
    <glyph glyph-name="Rcaron" unicode="&#x158;" horiz-adv-x="486" 
d="M415.5 334.5q-35.5 -44.5 -104.5 -55.5l140 -265v-14h-91l-145 275h-62v-275h-93v656h203q91 0 139.5 -46.5t48.5 -134.5v-20q0 -76 -35.5 -120.5zM359 475q0 96 -103 96h-103v-213h103q103 0 103 97v20zM91 864l133 -60l135 60v-83l-135 -61l-133 61v83z" />
    <glyph glyph-name="rcaron" unicode="&#x159;" horiz-adv-x="307" 
d="M297 496v-81h-57q-67 0 -91 -53v-362h-89v496h77l4 -38q43 38 99 38h57zM41 704l133 -60l135 60v-83l-135 -61l-133 61v83z" />
    <glyph glyph-name="Sacute" unicode="&#x15a;" horiz-adv-x="458" 
d="M87.5 37.5q-48.5 49.5 -48.5 141.5v30h90v-30q0 -52 25 -79.5t73 -27.5q47 0 73.5 24t26.5 67v11q0 37 -20.5 63t-69.5 48l-53 24q-70 31 -103 72t-33 99v19q0 76 50 122.5t135 46.5t133 -46.5t48 -130.5v-30h-91v30q0 46 -22 69.5t-69 23.5q-44 0 -68.5 -21.5
t-24.5 -60.5v-11q0 -34 18 -57.5t66 -44.5l55 -24q74 -32 108 -75.5t34 -105.5v-19q0 -80 -52 -128.5t-141 -48.5q-91 0 -139.5 49.5zM363 864v-79l-268 -65v80z" />
    <glyph glyph-name="sacute" unicode="&#x15b;" horiz-adv-x="427" 
d="M88 27.5q-44 39.5 -44 113.5v18h88v-18q0 -34 21.5 -53.5t59.5 -19.5q37 0 59 17t22 45v8q0 26 -17.5 42.5t-55.5 27.5l-49 13q-60 16 -90 50.5t-30 84.5v15q0 62 44.5 99.5t120.5 37.5q78 0 121 -39t43 -110v-18h-87v18q0 32 -21.5 50.5t-57.5 18.5q-34 0 -54.5 -15
t-20.5 -41v-9q0 -24 15 -39.5t47 -24.5l58 -16q64 -18 94 -50.5t30 -89.5v-14q0 -65 -45.5 -103t-124.5 -38q-82 0 -126 39.5zM346 704v-79l-268 -65v80z" />
    <glyph glyph-name="Scircumflex" unicode="&#x15c;" horiz-adv-x="458" 
d="M87.5 37.5q-48.5 49.5 -48.5 141.5v30h90v-30q0 -52 25 -79.5t73 -27.5q47 0 73.5 24t26.5 67v11q0 37 -20.5 63t-69.5 48l-53 24q-70 31 -103 72t-33 99v19q0 76 50 122.5t135 46.5t133 -46.5t48 -130.5v-30h-91v30q0 46 -22 69.5t-69 23.5q-44 0 -68.5 -21.5
t-24.5 -60.5v-11q0 -34 18 -57.5t66 -44.5l55 -24q74 -32 108 -75.5t34 -105.5v-19q0 -80 -52 -128.5t-141 -48.5q-91 0 -139.5 49.5zM228 865l135 -61v-83l-135 61l-133 -61v83z" />
    <glyph glyph-name="scircumflex" unicode="&#x15d;" horiz-adv-x="427" 
d="M88 27.5q-44 39.5 -44 113.5v18h88v-18q0 -34 21.5 -53.5t59.5 -19.5q37 0 59 17t22 45v8q0 26 -17.5 42.5t-55.5 27.5l-49 13q-60 16 -90 50.5t-30 84.5v15q0 62 44.5 99.5t120.5 37.5q78 0 121 -39t43 -110v-18h-87v18q0 32 -21.5 50.5t-57.5 18.5q-34 0 -54.5 -15
t-20.5 -41v-9q0 -24 15 -39.5t47 -24.5l58 -16q64 -18 94 -50.5t30 -89.5v-14q0 -65 -45.5 -103t-124.5 -38q-82 0 -126 39.5zM211 705l135 -61v-83l-135 61l-133 -61v83z" />
    <glyph glyph-name="Scedilla" unicode="&#x15e;" horiz-adv-x="458" 
d="M87.5 37.5q-48.5 49.5 -48.5 141.5v30h90v-30q0 -52 25 -79.5t73 -27.5q47 0 73.5 24t26.5 67v11q0 37 -20.5 63t-69.5 48l-53 24q-70 31 -103 72t-33 99v19q0 76 50 122.5t135 46.5t133 -46.5t48 -130.5v-30h-91v30q0 46 -22 69.5t-69 23.5q-44 0 -68.5 -21.5
t-24.5 -60.5v-11q0 -34 18 -57.5t66 -44.5l55 -24q74 -32 108 -75.5t34 -105.5v-19q0 -80 -52 -128.5t-141 -48.5q-91 0 -139.5 49.5zM275 1l-43 -171h-92l47 186z" />
    <glyph glyph-name="scedilla" unicode="&#x15f;" horiz-adv-x="427" 
d="M88 27.5q-44 39.5 -44 113.5v18h88v-18q0 -34 21.5 -53.5t59.5 -19.5q37 0 59 17t22 45v8q0 26 -17.5 42.5t-55.5 27.5l-49 13q-60 16 -90 50.5t-30 84.5v15q0 62 44.5 99.5t120.5 37.5q78 0 121 -39t43 -110v-18h-87v18q0 32 -21.5 50.5t-57.5 18.5q-34 0 -54.5 -15
t-20.5 -41v-9q0 -24 15 -39.5t47 -24.5l58 -16q64 -18 94 -50.5t30 -89.5v-14q0 -65 -45.5 -103t-124.5 -38q-82 0 -126 39.5zM258 1l-43 -171h-92l47 186z" />
    <glyph glyph-name="Scaron" unicode="&#x160;" horiz-adv-x="458" 
d="M87.5 37.5q-48.5 49.5 -48.5 141.5v30h90v-30q0 -52 25 -79.5t73 -27.5q47 0 73.5 24t26.5 67v11q0 37 -20.5 63t-69.5 48l-53 24q-70 31 -103 72t-33 99v19q0 76 50 122.5t135 46.5t133 -46.5t48 -130.5v-30h-91v30q0 46 -22 69.5t-69 23.5q-44 0 -68.5 -21.5
t-24.5 -60.5v-11q0 -34 18 -57.5t66 -44.5l55 -24q74 -32 108 -75.5t34 -105.5v-19q0 -80 -52 -128.5t-141 -48.5q-91 0 -139.5 49.5zM95 864l133 -60l135 60v-83l-135 -61l-133 61v83z" />
    <glyph glyph-name="scaron" unicode="&#x161;" horiz-adv-x="427" 
d="M88 27.5q-44 39.5 -44 113.5v18h88v-18q0 -34 21.5 -53.5t59.5 -19.5q37 0 59 17t22 45v8q0 26 -17.5 42.5t-55.5 27.5l-49 13q-60 16 -90 50.5t-30 84.5v15q0 62 44.5 99.5t120.5 37.5q78 0 121 -39t43 -110v-18h-87v18q0 32 -21.5 50.5t-57.5 18.5q-34 0 -54.5 -15
t-20.5 -41v-9q0 -24 15 -39.5t47 -24.5l58 -16q64 -18 94 -50.5t30 -89.5v-14q0 -65 -45.5 -103t-124.5 -38q-82 0 -126 39.5zM78 704l133 -60l135 60v-83l-135 -61l-133 61v83z" />
    <glyph glyph-name="uni0162" unicode="&#x162;" horiz-adv-x="404" 
d="M10 571v85h384v-85h-146v-571h-92v571h-146zM248 1l-43 -171h-92l47 186z" />
    <glyph glyph-name="uni0163" unicode="&#x163;" horiz-adv-x="348" 
d="M201 415v-267q0 -32 15.5 -49t44.5 -17h53v-82h-65q-65 0 -101 35.5t-36 99.5v280h-107v81h83q15 0 21 6.5t6 20.5v106h86v-133h136v-81h-136zM275 1l-43 -171h-92l47 186z" />
    <glyph glyph-name="Tcaron" unicode="&#x164;" horiz-adv-x="404" 
d="M10 571v85h384v-85h-146v-571h-92v571h-146zM68 864l133 -60l135 60v-83l-135 -61l-133 61v83z" />
    <glyph glyph-name="tcaron" unicode="&#x165;" horiz-adv-x="418" 
d="M201 415v-267q0 -32 15.5 -49t44.5 -17h53v-82h-65q-65 0 -101 35.5t-36 99.5v280h-107v81h83q15 0 21 6.5t6 20.5v106h86v-133h136v-81h-136zM415 740l-56 -185h-77l32 185h101z" />
    <glyph glyph-name="Tbar" unicode="&#x166;" horiz-adv-x="424" 
d="M258 571v-213h126v-82h-126v-276h-92v276h-126v82h126v213h-146v85h384v-85h-146z" />
    <glyph glyph-name="tbar" unicode="&#x167;" horiz-adv-x="368" 
d="M211 418v-127h131v-79h-131v-64q0 -32 15.5 -49t44.5 -17h53v-82h-65q-65 0 -101 35.5t-36 99.5v77h-107v79h107v127h-107v78h83q15 0 21 6.5t6 20.5v106h86v-133h131v-78h-131z" />
    <glyph glyph-name="Utilde" unicode="&#x168;" horiz-adv-x="495" 
d="M108 35q-48 47 -48 137v484h93v-483q0 -100 95 -100q94 0 94 100v483h93v-484q0 -90 -48 -137t-139 -47q-92 0 -140 47zM253 753q-16 5 -32 9.5t-31 4.5q-37 0 -73 -21v77q36 23 73 23q24 0 64 -14q21 -7 35.5 -10.5t31.5 -3.5q34 0 64 15v-78q-29 -16 -64 -16
q-26 0 -68 14z" />
    <glyph glyph-name="utilde" unicode="&#x169;" horiz-adv-x="459" 
d="M402 496v-496h-78l-4 36q-21 -23 -51 -35.5t-63 -12.5q-73 0 -112 41.5t-39 117.5v349h88v-335q0 -89 84 -89q26 0 48.5 13t36.5 35v376h90zM231 592q-16 5 -32 9.5t-31 4.5q-37 0 -73 -21v77q36 23 73 23q24 0 64 -14q21 -7 35.5 -10.5t31.5 -3.5q34 0 64 15v-78
q-29 -16 -64 -16q-26 0 -68 14z" />
    <glyph glyph-name="Umacron" unicode="&#x16a;" horiz-adv-x="495" 
d="M108 35q-48 47 -48 137v484h93v-483q0 -100 95 -100q94 0 94 100v483h93v-484q0 -90 -48 -137t-139 -47q-92 0 -140 47zM385 831v-78h-268v78h268z" />
    <glyph glyph-name="umacron" unicode="&#x16b;" horiz-adv-x="459" 
d="M402 496v-496h-78l-4 36q-21 -23 -51 -35.5t-63 -12.5q-73 0 -112 41.5t-39 117.5v349h88v-335q0 -89 84 -89q26 0 48.5 13t36.5 35v376h90zM363 670v-78h-268v78h268z" />
    <glyph glyph-name="Ubreve" unicode="&#x16c;" horiz-adv-x="495" 
d="M108 35q-48 47 -48 137v484h93v-483q0 -100 95 -100q94 0 94 100v483h93v-484q0 -90 -48 -137t-139 -47q-92 0 -140 47zM117 774v80q57 -42 136 -42q37 0 71.5 11t60.5 31v-80q-26 -19 -60 -30.5t-72 -11.5q-80 0 -136 42z" />
    <glyph glyph-name="ubreve" unicode="&#x16d;" horiz-adv-x="459" 
d="M402 496v-496h-78l-4 36q-21 -23 -51 -35.5t-63 -12.5q-73 0 -112 41.5t-39 117.5v349h88v-335q0 -89 84 -89q26 0 48.5 13t36.5 35v376h90zM95 613v80q57 -42 136 -42q37 0 71.5 11t60.5 31v-80q-26 -19 -60 -30.5t-72 -11.5q-80 0 -136 42z" />
    <glyph glyph-name="Uring" unicode="&#x16e;" horiz-adv-x="495" 
d="M108 35q-48 47 -48 137v484h93v-483q0 -100 95 -100q94 0 94 100v483h93v-484q0 -90 -48 -137t-139 -47q-92 0 -140 47zM168 732.5q-32 30.5 -32 79.5q0 50 32 81t83 31q52 0 84 -31t32 -81q0 -49 -32 -79.5t-84 -30.5q-51 0 -83 30.5zM287.5 776q13.5 14 13.5 36
q0 23 -13.5 36.5t-35.5 13.5q-21 0 -35.5 -14t-14.5 -36t14 -36t36 -14t35.5 14z" />
    <glyph glyph-name="uring" unicode="&#x16f;" horiz-adv-x="459" 
d="M402 496v-496h-78l-4 36q-21 -23 -51 -35.5t-63 -12.5q-73 0 -112 41.5t-39 117.5v349h88v-335q0 -89 84 -89q26 0 48.5 13t36.5 35v376h90zM146 571.5q-32 30.5 -32 79.5q0 50 32 81t83 31q52 0 84 -31t32 -81q0 -49 -32 -79.5t-84 -30.5q-51 0 -83 30.5zM265.5 615
q13.5 14 13.5 36q0 23 -13.5 36.5t-35.5 13.5q-21 0 -35.5 -14t-14.5 -36t14 -36t36 -14t35.5 14z" />
    <glyph glyph-name="Uhungarumlaut" unicode="&#x170;" horiz-adv-x="495" 
d="M108 35q-48 47 -48 137v484h93v-483q0 -100 95 -100q94 0 94 100v483h93v-484q0 -90 -48 -137t-139 -47q-92 0 -140 47zM278 865v-82l-185 -63v81zM477 865v-82l-185 -63v81z" />
    <glyph glyph-name="uhungarumlaut" unicode="&#x171;" horiz-adv-x="459" 
d="M402 496v-496h-78l-4 36q-21 -23 -51 -35.5t-63 -12.5q-73 0 -112 41.5t-39 117.5v349h88v-335q0 -89 84 -89q26 0 48.5 13t36.5 35v376h90zM256 704v-82l-185 -63v81zM455 704v-82l-185 -63v81z" />
    <glyph glyph-name="Uogonek" unicode="&#x172;" horiz-adv-x="495" 
d="M108 35q-48 47 -48 137v484h93v-483q0 -100 95 -100q94 0 94 100v483h93v-484q0 -90 -48 -137t-139 -47q-92 0 -140 47zM241.5 -148q-24.5 22 -24.5 57q0 21 11 40t37 47l64 70l65 -22l-73 -85q-10 -12 -14.5 -19.5t-4.5 -14.5q0 -9 7.5 -14.5t20.5 -5.5h41v-75h-65
q-40 0 -64.5 22z" />
    <glyph glyph-name="uogonek" unicode="&#x173;" horiz-adv-x="459" 
d="M402 496v-496h-78l-4 36q-21 -23 -51 -35.5t-63 -12.5q-73 0 -112 41.5t-39 117.5v349h88v-335q0 -89 84 -89q26 0 48.5 13t36.5 35v376h90zM273 -149q-25 21 -25 53q0 22 11.5 41.5t39.5 44.5l74 67l29 -57l-55 -53q-8 -8 -11 -13t-3 -11q0 -18 27 -18h42v-75h-66
q-38 0 -63 21z" />
    <glyph glyph-name="Wcircumflex" unicode="&#x174;" horiz-adv-x="782" 
d="M756 656v-14l-151 -642h-107l-107 484l-106 -484h-107l-151 642v14h92l113 -506l114 506h90l115 -505l113 505h92zM390 865l135 -61v-83l-135 61l-133 -61v83z" />
    <glyph glyph-name="wcircumflex" unicode="&#x175;" horiz-adv-x="678" 
d="M655 496v-13l-125 -483h-104l-87 350l-87 -350h-104l-125 483v13h85l93 -381l92 381h92l92 -381l93 381h85zM338 705l135 -61v-83l-135 61l-133 -61v83z" />
    <glyph glyph-name="Ycircumflex" unicode="&#x176;" horiz-adv-x="454" 
d="M436 642l-163 -374v-268h-92v266l-163 376v14h90l119 -277l118 277h91v-14zM226 865l135 -61v-83l-135 61l-133 -61v83z" />
    <glyph glyph-name="ycircumflex" unicode="&#x177;" horiz-adv-x="464" 
d="M441 496v-13l-178 -546q-19 -59 -51.5 -83t-92.5 -24h-55v82h47q29 0 43 11t23 42l11 38l-165 480v13h94l118 -367l112 367h94zM231 705l135 -61v-83l-135 61l-133 -61v83z" />
    <glyph glyph-name="Ydieresis" unicode="&#x178;" horiz-adv-x="454" 
d="M436 642l-163 -374v-268h-92v266l-163 376v14h90l119 -277l118 277h91v-14zM99 752.5q-15 14.5 -15 39.5q0 24 15 39t39 15t39 -14.5t15 -39.5t-15 -39.5t-39 -14.5t-39 14.5zM276 752.5q-15 14.5 -15 39.5q0 24 15 39t39 15t39.5 -15t15.5 -39t-15.5 -39t-39.5 -15
t-39 14.5z" />
    <glyph glyph-name="Zacute" unicode="&#x179;" horiz-adv-x="426" 
d="M383 571l-244 -486h244v-85h-341v85l245 486h-237v85h333v-85zM347 864v-79l-268 -65v80z" />
    <glyph glyph-name="zacute" unicode="&#x17a;" horiz-adv-x="421" 
d="M373 415l-223 -333h223v-82h-325v82l224 333h-224v81h325v-81zM344 704v-79l-268 -65v80z" />
    <glyph glyph-name="Zdotaccent" unicode="&#x17b;" horiz-adv-x="426" 
d="M383 571l-244 -486h244v-85h-341v85l245 486h-237v85h333v-85zM169.5 748q-17.5 17 -17.5 44t17 44t44 17t44 -16.5t17 -44.5q0 -27 -17 -44t-44 -17q-26 0 -43.5 17z" />
    <glyph glyph-name="zdotaccent" unicode="&#x17c;" horiz-adv-x="421" 
d="M373 415l-223 -333h223v-82h-325v82l224 333h-224v81h325v-81zM166.5 588q-17.5 17 -17.5 44t17 44t44 17t44 -16.5t17 -44.5q0 -27 -17 -44t-44 -17q-26 0 -43.5 17z" />
    <glyph glyph-name="Zcaron" unicode="&#x17d;" horiz-adv-x="426" 
d="M383 571l-244 -486h244v-85h-341v85l245 486h-237v85h333v-85zM79 864l133 -60l135 60v-83l-135 -61l-133 61v83z" />
    <glyph glyph-name="zcaron" unicode="&#x17e;" horiz-adv-x="421" 
d="M373 415l-223 -333h223v-82h-325v82l224 333h-224v81h325v-81zM76 704l133 -60l135 60v-83l-135 -61l-133 61v83z" />
    <glyph glyph-name="uni018F" unicode="&#x18f;" horiz-adv-x="512" 
d="M399.5 616.5q53.5 -51.5 53.5 -137.5v-302q0 -86 -53 -137.5t-144 -51.5t-144 52t-53 142v187h305v101q0 54 -28 84t-80 30q-108 0 -108 -124h-89q0 101 51 154.5t146 53.5q90 0 143.5 -51.5zM336 102q28 29 28 83v100h-216v-100q0 -53 28 -82.5t80 -29.5t80 29z" />
    <glyph glyph-name="florin" unicode="&#x192;" horiz-adv-x="490" 
d="M451 288h-176v-274q0 -68 -33 -103.5t-109 -35.5h-62v81h55q60 0 60 63v269h-147v81h147v187q0 68 33.5 104t109.5 36h90v-82h-84q-29 0 -44.5 -16t-15.5 -46v-183h176v-81z" />
    <glyph glyph-name="uni01CD" unicode="&#x1cd;" horiz-adv-x="499" 
d="M473 14v-14h-94l-36 146h-186l-36 -146h-94v14l169 642h109zM322 229l-72 294l-72 -294h144zM116 864l133 -60l135 60v-83l-135 -61l-133 61v83z" />
    <glyph glyph-name="uni01CE" unicode="&#x1ce;" horiz-adv-x="462" 
d="M457 82v-82h-47q-66 0 -95 40q-43 -52 -126 -52q-69 0 -109.5 38t-40.5 103q0 62 38.5 98t118.5 50l99 17v48q0 40 -20.5 61.5t-59.5 21.5q-42 0 -63 -22.5t-21 -64.5v-10h-89v10q0 83 44 126.5t126 43.5q84 0 127.5 -43.5t43.5 -127.5v-207q0 -48 43 -48h31zM255.5 81.5
q26.5 16.5 39.5 44.5v94l-79 -13q-89 -15 -89 -76q0 -31 19 -48.5t52 -17.5q31 0 57.5 16.5zM87 704l133 -60l135 60v-83l-135 -61l-133 61v83z" />
    <glyph glyph-name="uni01D2" unicode="&#x1d2;" 
d="M95.5 31q-47.5 43 -47.5 123v187q0 81 47.5 124t127.5 43t127.5 -43t47.5 -124v-187q0 -80 -47.5 -123t-127.5 -43t-127.5 43zM284.5 95.5q23.5 22.5 23.5 62.5v180q0 41 -23.5 63.5t-61.5 22.5t-61.5 -22.5t-23.5 -63.5v-180q0 -40 23.5 -62.5t61.5 -22.5t61.5 22.5z
M89 704l133 -60l135 60v-83l-135 -61l-133 61v83z" />
    <glyph glyph-name="Gcaron" unicode="&#x1e6;" horiz-adv-x="521" 
d="M366 438v34q0 53 -28 82t-78 29q-51 0 -80 -29t-29 -81v-290q0 -52 28 -80.5t80 -28.5q71 0 108 55v135h-132v83h222v-347h-75l-4 36q-48 -48 -123 -48q-58 0 -102.5 23.5t-69 66.5t-24.5 99v302q0 88 54 138.5t147 50.5q94 0 146 -51.5t52 -144.5v-34h-92zM126 864
l133 -60l135 60v-83l-135 -61l-133 61v83z" />
    <glyph glyph-name="gcaron" unicode="&#x1e7;" horiz-adv-x="454" 
d="M398 496v-511q0 -80 -45.5 -123.5t-130.5 -43.5t-130.5 43.5t-45.5 125.5v10h89v-10q0 -85 88 -85q41 0 63.5 21.5t22.5 61.5v83q-45 -40 -106 -40q-71 0 -113.5 43.5t-42.5 116.5v167q0 70 43 111.5t115 41.5t111 -47l4 35h78zM272.5 124q22.5 14 36.5 38v210
q-14 24 -36.5 38t-48.5 14q-40 0 -63.5 -25t-23.5 -67v-130q0 -42 23.5 -67t63.5 -25q26 0 48.5 14zM85 704l133 -60l135 60v-83l-135 -61l-133 61v83z" />
    <glyph glyph-name="uni01F4" unicode="&#x1f4;" horiz-adv-x="521" 
d="M366 438v34q0 53 -28 82t-78 29q-51 0 -80 -29t-29 -81v-290q0 -52 28 -80.5t80 -28.5q71 0 108 55v135h-132v83h222v-347h-75l-4 36q-48 -48 -123 -48q-58 0 -102.5 23.5t-69 66.5t-24.5 99v302q0 88 54 138.5t147 50.5q94 0 146 -51.5t52 -144.5v-34h-92zM394 864v-79
l-268 -65v80z" />
    <glyph glyph-name="uni01F5" unicode="&#x1f5;" horiz-adv-x="454" 
d="M398 496v-511q0 -80 -45.5 -123.5t-130.5 -43.5t-130.5 43.5t-45.5 125.5v10h89v-10q0 -85 88 -85q41 0 63.5 21.5t22.5 61.5v83q-45 -40 -106 -40q-71 0 -113.5 43.5t-42.5 116.5v167q0 70 43 111.5t115 41.5t111 -47l4 35h78zM272.5 124q22.5 14 36.5 38v210
q-14 24 -36.5 38t-48.5 14q-40 0 -63.5 -25t-23.5 -67v-130q0 -42 23.5 -67t63.5 -25q26 0 48.5 14zM353 704v-79l-268 -65v80z" />
    <glyph glyph-name="AEacute" unicode="&#x1fc;" horiz-adv-x="657" 
d="M374 571l26 -201h208v-84h-198l26 -201h192v-85h-274l-18 146h-183l-37 -146h-89v14l167 642h434v-85h-254zM283 571h-23l-86 -342h152zM463 864v-79l-268 -65v80z" />
    <glyph glyph-name="aeacute" unicode="&#x1fd;" horiz-adv-x="695" 
d="M390 223v-68q0 -38 23.5 -60.5t63.5 -22.5q37 0 59 23t22 63h89q-2 -81 -47 -125.5t-123 -44.5q-97 0 -147 59q-23 -29 -57.5 -44t-77.5 -15q-73 0 -114.5 37.5t-41.5 102.5q0 62 38.5 98t118.5 49l97 16v52q0 39 -21 60.5t-59 21.5q-41 0 -62 -22.5t-21 -64.5v-10h-88
v10q0 83 42.5 126.5t122.5 43.5q97 0 138 -63q23 30 58.5 46.5t78.5 16.5q73 0 119 -46.5t46 -120.5v-118h-257zM413 401q-23 -24 -23 -62v-43h168v43q0 38 -23 62t-61 24t-61 -24zM258 82q25 17 37 47q-2 20 -2 31v57l-79 -12q-87 -13 -87 -74q0 -32 19 -49t54 -17
q33 0 58 17zM480 704v-79l-268 -65v80z" />
    <glyph glyph-name="Oslashacute" unicode="&#x1fe;" horiz-adv-x="512" 
d="M453 479v-302q0 -87 -53.5 -138t-143.5 -51q-34 0 -66 8l-21 -62h-87v15l31 89q-54 51 -54 139v302q0 88 53 138.5t144 50.5q35 0 67 -9l21 63h87v-14l-31 -91q53 -51 53 -138zM147 184q0 -27 8 -49l146 442q-18 7 -45 7q-52 0 -80.5 -29.5t-28.5 -82.5v-288zM365 472
q0 24 -7 48l-146 -441q18 -7 44 -7q52 0 80.5 29.5t28.5 82.5v288zM390 864v-79l-268 -65v80z" />
    <glyph glyph-name="oslashacute" unicode="&#x1ff;" 
d="M398 341v-187q0 -78 -46 -122t-129 -44q-29 0 -55 6l-18 -47h-80v14l27 68q-49 44 -49 125v187q0 79 46 123t129 44q30 0 57 -6l17 47h80v-14l-27 -70q48 -43 48 -124zM132 157q0 -17 5 -32l118 300q-13 4 -31 4q-42 0 -67 -24.5t-25 -66.5v-181zM315 338q0 17 -5 34
l-116 -300q12 -4 30 -4q42 0 66.5 24t24.5 65v181zM357 704v-79l-268 -65v80z" />
    <glyph glyph-name="uni0218" unicode="&#x218;" horiz-adv-x="458" 
d="M87.5 37.5q-48.5 49.5 -48.5 141.5v30h90v-30q0 -52 25 -79.5t73 -27.5q47 0 73.5 24t26.5 67v11q0 37 -20.5 63t-69.5 48l-53 24q-70 31 -103 72t-33 99v19q0 76 50 122.5t135 46.5t133 -46.5t48 -130.5v-30h-91v30q0 46 -22 69.5t-69 23.5q-44 0 -68.5 -21.5
t-24.5 -60.5v-11q0 -34 18 -57.5t66 -44.5l55 -24q74 -32 108 -75.5t34 -105.5v-19q0 -80 -52 -128.5t-141 -48.5q-91 0 -139.5 49.5zM272 -58l-47 -154h-84l41 154h90z" />
    <glyph glyph-name="uni0219" unicode="&#x219;" horiz-adv-x="427" 
d="M88 27.5q-44 39.5 -44 113.5v18h88v-18q0 -34 21.5 -53.5t59.5 -19.5q37 0 59 17t22 45v8q0 26 -17.5 42.5t-55.5 27.5l-49 13q-60 16 -90 50.5t-30 84.5v15q0 62 44.5 99.5t120.5 37.5q78 0 121 -39t43 -110v-18h-87v18q0 32 -21.5 50.5t-57.5 18.5q-34 0 -54.5 -15
t-20.5 -41v-9q0 -24 15 -39.5t47 -24.5l58 -16q64 -18 94 -50.5t30 -89.5v-14q0 -65 -45.5 -103t-124.5 -38q-82 0 -126 39.5zM256 -58l-47 -154h-84l41 154h90z" />
    <glyph glyph-name="uni021A" unicode="&#x21a;" horiz-adv-x="404" 
d="M10 571v85h384v-85h-146v-571h-92v571h-146zM246 -58l-47 -154h-84l41 154h90z" />
    <glyph glyph-name="uni021B" unicode="&#x21b;" horiz-adv-x="348" 
d="M201 415v-267q0 -32 15.5 -49t44.5 -17h53v-82h-65q-65 0 -101 35.5t-36 99.5v280h-107v81h83q15 0 21 6.5t6 20.5v106h86v-133h136v-81h-136zM273 -58l-47 -154h-84l41 154h90z" />
    <glyph glyph-name="uni0232" unicode="&#x232;" horiz-adv-x="454" 
d="M436 642l-163 -374v-268h-92v266l-163 376v14h90l119 -277l118 277h91v-14zM361 831v-78h-268v78h268z" />
    <glyph glyph-name="uni0233" unicode="&#x233;" horiz-adv-x="464" 
d="M441 496v-13l-178 -546q-19 -59 -51.5 -83t-92.5 -24h-55v82h47q29 0 43 11t23 42l11 38l-165 480v13h94l118 -367l112 367h94zM366 671v-78h-268v78h268z" />
    <glyph glyph-name="uni0237" unicode="&#x237;" horiz-adv-x="210" 
d="M-3 -88q30 0 46.5 17.5t16.5 48.5v518h89v-524q0 -66 -38 -104t-103 -38h-59v82h48z" />
    <glyph glyph-name="uni0259" unicode="&#x259;" 
d="M351.5 464q46.5 -44 46.5 -122v-187q0 -79 -46.5 -123t-128.5 -44t-128.5 44t-46.5 123v122h261v67q0 37 -23.5 59t-62.5 22q-40 0 -63 -23t-23 -64h-89q2 82 48 126t127 44q82 0 128.5 -44zM285.5 94q23.5 22 23.5 60v49h-172v-49q0 -38 23.5 -60t62.5 -22t62.5 22z" />
    <glyph glyph-name="uni02BB" unicode="&#x2bb;" horiz-adv-x="600" 
d="M677 709l-40 -155h-94l48 155h86z" />
    <glyph glyph-name="uni02BC" unicode="&#x2bc;" horiz-adv-x="284" 
d="M211 699v-13l-72 -242h-82l52 255h102z" />
    <glyph glyph-name="circumflex" unicode="&#x2c6;" horiz-adv-x="600" 
d="M299 705l135 -61v-83l-135 61l-133 -61v83z" />
    <glyph glyph-name="caron" unicode="&#x2c7;" horiz-adv-x="600" 
d="M166 704l133 -60l135 60v-83l-135 -61l-133 61v83z" />
    <glyph glyph-name="uni02C9" unicode="&#x2c9;" horiz-adv-x="600" 
d="M734 671v-78h-268v78h268z" />
    <glyph glyph-name="breve" unicode="&#x2d8;" horiz-adv-x="600" 
d="M166 614v80q57 -42 136 -42q37 0 71.5 11t60.5 31v-80q-26 -19 -60 -30.5t-72 -11.5q-80 0 -136 42z" />
    <glyph glyph-name="dotaccent" unicode="&#x2d9;" horiz-adv-x="600" 
d="M256.5 588q-17.5 17 -17.5 44t17 44t44 17t44 -16.5t17 -44.5q0 -27 -17 -44t-44 -17q-26 0 -43.5 17z" />
    <glyph glyph-name="ring" unicode="&#x2da;" horiz-adv-x="600" 
d="M216 572.5q-32 30.5 -32 79.5q0 50 32 81t83 31q52 0 84 -31t32 -81q0 -49 -32 -79.5t-84 -30.5q-51 0 -83 30.5zM335.5 616q13.5 14 13.5 36q0 23 -13.5 36.5t-35.5 13.5q-21 0 -35.5 -14t-14.5 -36t14 -36t36 -14t35.5 14z" />
    <glyph glyph-name="ogonek" unicode="&#x2db;" horiz-adv-x="600" 
d="M248 -149q-25 21 -25 53q0 22 11.5 41.5t39.5 44.5l74 67l29 -57l-55 -53q-8 -8 -11 -13t-3 -11q0 -18 27 -18h42v-75h-66q-38 0 -63 21z" />
    <glyph glyph-name="tilde" unicode="&#x2dc;" horiz-adv-x="600" 
d="M302 593q-16 5 -32 9.5t-31 4.5q-37 0 -73 -21v77q36 23 73 23q24 0 64 -14q21 -7 35.5 -10.5t31.5 -3.5q34 0 64 15v-78q-29 -16 -64 -16q-26 0 -68 14z" />
    <glyph glyph-name="hungarumlaut" unicode="&#x2dd;" horiz-adv-x="600" 
d="M293 705v-82l-185 -63v81zM492 705v-82l-185 -63v81z" />
    <glyph glyph-name="gravecomb" unicode="&#x300;" horiz-adv-x="0" 
d="M-134 704l268 -64v-80l-268 65v79z" />
    <glyph glyph-name="acutecomb" unicode="&#x301;" horiz-adv-x="0" 
d="M134 704v-79l-268 -65v80z" />
    <glyph glyph-name="uni0302" unicode="&#x302;" horiz-adv-x="0" 
d="M-1 705l135 -61v-83l-135 61l-133 -61v83z" />
    <glyph glyph-name="tildecomb" unicode="&#x303;" horiz-adv-x="0" 
d="M2 593q-16 5 -32 9.5t-31 4.5q-37 0 -73 -21v77q36 23 73 23q24 0 64 -14q21 -7 35.5 -10.5t31.5 -3.5q34 0 64 15v-78q-29 -16 -64 -16q-26 0 -68 14z" />
    <glyph glyph-name="uni0304" unicode="&#x304;" horiz-adv-x="0" 
d="M134 671v-78h-268v78h268z" />
    <glyph glyph-name="uni0306" unicode="&#x306;" horiz-adv-x="0" 
d="M-134 614v80q57 -42 136 -42q37 0 71.5 11t60.5 31v-80q-26 -19 -60 -30.5t-72 -11.5q-80 0 -136 42z" />
    <glyph glyph-name="uni0307" unicode="&#x307;" horiz-adv-x="0" 
d="M-43.5 588q-17.5 17 -17.5 44t17 44t44 17t44 -16.5t17 -44.5q0 -27 -17 -44t-44 -17q-26 0 -43.5 17z" />
    <glyph glyph-name="uni0308" unicode="&#x308;" horiz-adv-x="0" 
d="M-128 592.5q-15 14.5 -15 39.5q0 24 15 39t39 15t39 -14.5t15 -39.5t-15 -39.5t-39 -14.5t-39 14.5zM49 592.5q-15 14.5 -15 39.5q0 24 15 39t39 15t39.5 -15t15.5 -39t-15.5 -39t-39.5 -15t-39 14.5z" />
    <glyph glyph-name="uni030A" unicode="&#x30a;" horiz-adv-x="0" 
d="M-83 572.5q-32 30.5 -32 79.5q0 50 32 81t83 31q52 0 84 -31t32 -81q0 -49 -32 -79.5t-84 -30.5q-51 0 -83 30.5zM36.5 616q13.5 14 13.5 36q0 23 -13.5 36.5t-35.5 13.5q-21 0 -35.5 -14t-14.5 -36t14 -36t36 -14t35.5 14z" />
    <glyph glyph-name="uni030B" unicode="&#x30b;" horiz-adv-x="0" 
d="M27 705v-82l-185 -63v81zM226 705v-82l-185 -63v81z" />
    <glyph glyph-name="uni030C" unicode="&#x30c;" horiz-adv-x="0" 
d="M-134 704l133 -60l135 60v-83l-135 -61l-133 61v83z" />
    <glyph glyph-name="uni0312" unicode="&#x312;" horiz-adv-x="0" 
d="M77 709l-40 -155h-94l48 155h86z" />
    <glyph glyph-name="dotbelowcomb" unicode="&#x323;" horiz-adv-x="0" 
d="M-43.5 -180q-17.5 17 -17.5 44t17.5 44.5t43.5 17.5q27 0 44 -17.5t17 -44.5q0 -28 -17 -44.5t-44 -16.5q-26 0 -43.5 17z" />
    <glyph glyph-name="uni0326" unicode="&#x326;" horiz-adv-x="0" 
d="M45 -58l-47 -154h-84l41 154h90z" />
    <glyph glyph-name="uni0327" unicode="&#x327;" horiz-adv-x="0" 
d="M46 1l-43 -171h-92l47 186z" />
    <glyph glyph-name="uni0328" unicode="&#x328;" horiz-adv-x="0" 
d="M-128 -149q-25 21 -25 53q0 22 11.5 41.5t39.5 44.5l74 67l29 -57l-55 -53q-8 -8 -11 -13t-3 -11q0 -18 27 -18h42v-75h-66q-38 0 -63 21z" />
    <glyph glyph-name="uni0374" unicode="&#x374;" horiz-adv-x="284" 
d="M211 656v-13l-72 -246h-82l52 259h102z" />
    <glyph glyph-name="tonos" unicode="&#x384;" horiz-adv-x="600" 
d="M352 759l-20 -205h-84l20 205h84z" />
    <glyph glyph-name="dieresistonos" unicode="&#x385;" horiz-adv-x="600" 
d="M354 759l-20 -205h-84l20 205h84zM130 593q-15 15 -15 39t15 39t39 15q25 0 39.5 -14.5t14.5 -39.5q0 -24 -14.5 -39t-39.5 -15q-24 0 -39 15zM391.5 593q-14.5 15 -14.5 39t15 39t38 15q25 0 40 -14.5t15 -39.5q0 -24 -15.5 -39t-39.5 -15t-38.5 15z" />
    <glyph glyph-name="Alphatonos" unicode="&#x386;" horiz-adv-x="499" 
d="M473 14v-14h-94l-36 146h-186l-36 -146h-94v14l169 642h109zM322 229l-72 294l-72 -294h144zM63 656l-20 -205h-84l20 205h84z" />
    <glyph glyph-name="anoteleia" unicode="&#x387;" horiz-adv-x="284" 
d="M100 394q-17 17 -17 42q0 26 16.5 42.5t42.5 16.5t42.5 -16.5t16.5 -42.5t-16.5 -42.5t-42.5 -16.5q-25 0 -42 17z" />
    <glyph glyph-name="Epsilontonos" unicode="&#x388;" horiz-adv-x="429" 
d="M400 656v-85h-247v-201h232v-84h-232v-201h247v-85h-340v656h340zM-36 656l-20 -205h-84l20 205h84z" />
    <glyph glyph-name="Etatonos" unicode="&#x389;" horiz-adv-x="499" 
d="M153 656v-286h193v286h93v-656h-93v286h-193v-286h-93v656h93zM-36 656l-20 -205h-84l20 205h84z" />
    <glyph glyph-name="Iotatonos" unicode="&#x38a;" horiz-adv-x="220" 
d="M156 656v-656h-92v656h92zM-37 656l-20 -205h-84l20 205h84z" />
    <glyph glyph-name="Omicrontonos" unicode="&#x38c;" horiz-adv-x="512" 
d="M112 38.5q-53 50.5 -53 138.5v302q0 87 53 138t144 51t144 -51t53 -138v-302q0 -87 -53 -138t-144 -51t-144 50.5zM333.5 102q27.5 29 27.5 81v289q0 53 -27.5 82t-77.5 29t-77.5 -29t-27.5 -82v-289q0 -52 27.5 -81t77.5 -29t77.5 29zM-14 656l-20 -205h-84l20 205h84z
" />
    <glyph glyph-name="Upsilontonos" unicode="&#x38e;" horiz-adv-x="454" 
d="M436 642l-163 -374v-268h-92v266l-163 376v14h90l119 -277l118 277h91v-14zM-38 656l-20 -205h-84l20 205h84z" />
    <glyph glyph-name="Omegatonos" unicode="&#x38f;" horiz-adv-x="512" 
d="M428 181q-25 -43 -69 -63v-33h94v-85h-171v182q79 18 79 105v185q0 53 -27.5 82t-77.5 29t-77.5 -29.5t-27.5 -81.5v-185q0 -44 20.5 -71t58.5 -34v-182h-171v85h94v33q-44 21 -69 64t-25 101v193q0 88 53.5 140t143.5 52t143.5 -52t53.5 -140v-193q0 -59 -25 -102z
M-14 656l-20 -205h-84l20 205h84z" />
    <glyph glyph-name="iotadieresistonos" unicode="&#x390;" horiz-adv-x="242" 
d="M91.5 28q-31.5 28 -31.5 94v374h89v-366q0 -25 10 -36.5t33 -11.5h46v-82h-55q-60 0 -91.5 28zM164 759l-20 -205h-84l20 205h84zM-60 593q-15 15 -15 39t15 39t39 15q25 0 39.5 -14.5t14.5 -39.5q0 -24 -14.5 -39t-39.5 -15q-24 0 -39 15zM201.5 593q-14.5 15 -14.5 39
t15 39t38 15q25 0 40 -14.5t15 -39.5q0 -24 -15.5 -39t-39.5 -15t-38.5 15z" />
    <glyph glyph-name="Alpha" unicode="&#x391;" horiz-adv-x="499" 
d="M473 14v-14h-94l-36 146h-186l-36 -146h-94v14l169 642h109zM322 229l-72 294l-72 -294h144z" />
    <glyph glyph-name="Beta" unicode="&#x392;" horiz-adv-x="483" 
d="M419.5 277.5q23.5 -37.5 23.5 -90.5v-20q0 -78 -48.5 -122.5t-133.5 -44.5h-201v656h190q86 0 134 -42.5t48 -119.5v-20q0 -50 -20.5 -85.5t-58.5 -54.5q43 -19 66.5 -56.5zM153 572v-198h88q48 0 73.5 23.5t25.5 68.5v18q0 88 -100 88h-87zM351 195q0 46 -26 71t-73 25
h-99v-207h97q50 0 75.5 23.5t25.5 69.5v18z" />
    <glyph glyph-name="Gamma" unicode="&#x393;" horiz-adv-x="416" 
d="M406 656v-85h-253v-571h-93v656h346z" />
    <glyph glyph-name="uni0394" unicode="&#x394;" horiz-adv-x="481" 
d="M448 85v-85h-415v85l153 571h108zM118 85h243l-121 477z" />
    <glyph glyph-name="Epsilon" unicode="&#x395;" horiz-adv-x="429" 
d="M400 656v-85h-247v-201h232v-84h-232v-201h247v-85h-340v656h340z" />
    <glyph glyph-name="Zeta" unicode="&#x396;" horiz-adv-x="426" 
d="M383 571l-244 -486h244v-85h-341v85l245 486h-237v85h333v-85z" />
    <glyph glyph-name="Eta" unicode="&#x397;" horiz-adv-x="499" 
d="M153 656v-286h193v286h93v-656h-93v286h-193v-286h-93v656h93z" />
    <glyph glyph-name="Theta" unicode="&#x398;" horiz-adv-x="512" 
d="M399.5 617q53.5 -51 53.5 -138v-302q0 -87 -53.5 -138t-143.5 -51q-91 0 -144 50.5t-53 138.5v302q0 87 53.5 138t143.5 51t143.5 -51zM177 554q-29 -30 -29 -82v-102h216v102q0 53 -28.5 82.5t-79.5 29.5q-50 0 -79 -30zM335.5 101.5q28.5 29.5 28.5 82.5v102h-216v-102
q0 -53 28.5 -82.5t79.5 -29.5t79.5 29.5z" />
    <glyph glyph-name="Iota" unicode="&#x399;" horiz-adv-x="220" 
d="M156 656v-656h-92v656h92z" />
    <glyph glyph-name="Kappa" unicode="&#x39a;" horiz-adv-x="496" 
d="M461 14v-14h-94l-149 279l-65 -99v-180h-93v656h93v-313l210 313h96v-14l-183 -278z" />
    <glyph glyph-name="Lambda" unicode="&#x39b;" horiz-adv-x="498" 
d="M471 14v-14h-93l-129 508l-129 -508h-94v14l169 642h107z" />
    <glyph glyph-name="Mu" unicode="&#x39c;" horiz-adv-x="629" 
d="M569 0h-90v478l-132 -478h-65l-132 475v-475h-90v656h120l134 -472l134 472h121v-656z" />
    <glyph glyph-name="Nu" unicode="&#x39d;" horiz-adv-x="499" 
d="M439 656v-656h-98l-192 462v-462h-89v656h98l192 -466v466h89z" />
    <glyph glyph-name="Xi" unicode="&#x39e;" horiz-adv-x="453" 
d="M271 571v-201h133v-84h-133v-201h153v-85h-395v85h154v201h-134v84h134v201h-154v85h395v-85h-153z" />
    <glyph glyph-name="Omicron" unicode="&#x39f;" horiz-adv-x="512" 
d="M112 38.5q-53 50.5 -53 138.5v302q0 87 53 138t144 51t144 -51t53 -138v-302q0 -87 -53 -138t-144 -51t-144 50.5zM333.5 102q27.5 29 27.5 81v289q0 53 -27.5 82t-77.5 29t-77.5 -29t-27.5 -82v-289q0 -52 27.5 -81t77.5 -29t77.5 29z" />
    <glyph glyph-name="Pi" unicode="&#x3a0;" horiz-adv-x="504" 
d="M444 656v-656h-93v571h-198v-571h-93v656h384z" />
    <glyph glyph-name="Rho" unicode="&#x3a1;" horiz-adv-x="482" 
d="M263 656q91 0 139.5 -46.5t48.5 -134.5v-20q0 -89 -48 -135t-140 -46h-110v-274h-93v656h203zM359 455v20q0 96 -103 96h-103v-213h103q103 0 103 97z" />
    <glyph glyph-name="Sigma" unicode="&#x3a3;" horiz-adv-x="429" 
d="M400 571h-248l157 -221v-43l-157 -222h248v-85h-353v85l172 243l-172 243v85h353v-85z" />
    <glyph glyph-name="Tau" unicode="&#x3a4;" horiz-adv-x="404" 
d="M10 571v85h384v-85h-146v-571h-92v571h-146z" />
    <glyph glyph-name="Upsilon" unicode="&#x3a5;" horiz-adv-x="454" 
d="M436 642l-163 -374v-268h-92v266l-163 376v14h90l119 -277l118 277h91v-14z" />
    <glyph glyph-name="Phi" unicode="&#x3a6;" horiz-adv-x="726" 
d="M608.5 535q58.5 -56 58.5 -154v-107q0 -98 -58.5 -153.5t-162.5 -55.5h-37v-105h-92v105h-37q-104 0 -162.5 55.5t-58.5 153.5v107q0 98 58.5 154t162.5 56h37v105h92v-105h37q104 0 162.5 -56zM183.5 181.5q32.5 -31.5 96.5 -31.5h38v356h-38q-129 0 -129 -126v-106
q0 -61 32.5 -92.5zM575 380q0 126 -129 126h-38v-356h38q64 0 96.5 31.5t32.5 92.5v106z" />
    <glyph glyph-name="Chi" unicode="&#x3a7;" horiz-adv-x="496" 
d="M461 14v-14h-93l-120 255l-120 -255h-93v14l153 317l-151 311v14h93l118 -249l116 249h94v-14l-149 -311z" />
    <glyph glyph-name="Psi" unicode="&#x3a8;" horiz-adv-x="692" 
d="M645 656v-295q0 -93 -51 -142.5t-146 -49.5h-56v-169h-91v169h-56q-95 0 -146 49.5t-51 142.5v295h93v-294q0 -52 27 -80t78 -28h55v402h91v-402h55q50 0 77.5 28t27.5 80v294h93z" />
    <glyph glyph-name="uni03A9" unicode="&#x3a9;" horiz-adv-x="512" 
d="M428 181q-25 -43 -69 -63v-33h94v-85h-171v182q79 18 79 105v185q0 53 -27.5 82t-77.5 29t-77.5 -29.5t-27.5 -81.5v-185q0 -44 20.5 -71t58.5 -34v-182h-171v85h94v33q-44 21 -69 64t-25 101v193q0 88 53.5 140t143.5 52t143.5 -52t53.5 -140v-193q0 -59 -25 -102z" />
    <glyph glyph-name="Iotadieresis" unicode="&#x3aa;" horiz-adv-x="220" 
d="M156 656v-656h-92v656h92zM-18 752.5q-15 14.5 -15 39.5q0 24 15 39t39 15t39 -14.5t15 -39.5t-15 -39.5t-39 -14.5t-39 14.5zM159 752.5q-15 14.5 -15 39.5q0 24 15 39t39 15t39.5 -15t15.5 -39t-15.5 -39t-39.5 -15t-39 14.5z" />
    <glyph glyph-name="Upsilondieresis" unicode="&#x3ab;" horiz-adv-x="454" 
d="M436 642l-163 -374v-268h-92v266l-163 376v14h90l119 -277l118 277h91v-14zM99 752.5q-15 14.5 -15 39.5q0 24 15 39t39 15t39 -14.5t15 -39.5t-15 -39.5t-39 -14.5t-39 14.5zM276 752.5q-15 14.5 -15 39.5q0 24 15 39t39 15t39.5 -15t15.5 -39t-15.5 -39t-39.5 -15
t-39 14.5z" />
    <glyph glyph-name="alphatonos" unicode="&#x3ac;" horiz-adv-x="477" 
d="M472 82v-82h-47q-65 0 -94 40q-43 -52 -124 -52q-73 0 -116 41.5t-43 111.5v214q0 69 42.5 110.5t112.5 41.5q72 0 114 -45l3 34h78v-366q0 -48 43 -48h31zM271.5 86q23.5 13 38.5 36v252q-15 23 -38 36.5t-51 13.5q-38 0 -60.5 -23.5t-22.5 -63.5v-178q0 -39 23 -62.5
t61 -23.5q26 0 49.5 13zM292 759l-20 -205h-84l20 205h84z" />
    <glyph glyph-name="epsilontonos" unicode="&#x3ad;" horiz-adv-x="422" 
d="M393 162v-20q0 -75 -46 -114.5t-134 -39.5q-83 0 -129.5 37t-46.5 103v20q0 73 68 104q-32 14 -48.5 39.5t-16.5 59.5v20q0 63 47 99.5t129 36.5t128.5 -41t46.5 -112v-19h-88v19q0 34 -24 53.5t-65 19.5t-63 -17t-22 -48v-15q0 -27 19 -41.5t54 -14.5h74v-78h-76
q-36 0 -55.5 -15.5t-19.5 -45.5v-15q0 -32 23.5 -49.5t66.5 -17.5q44 0 67.5 18.5t23.5 53.5v20h87zM278 758l-20 -205h-84l20 205h84z" />
    <glyph glyph-name="etatonos" unicode="&#x3ae;" horiz-adv-x="502" 
d="M387 466q41 -42 41 -116v-520h-90v505q0 89 -78 89q-29 0 -52.5 -12.5t-37.5 -35.5v-376h-89v363q0 48 -44 48h-32v85h49q64 0 95 -39q43 51 124 51q73 0 114 -42zM335 759l-20 -205h-84l20 205h84z" />
    <glyph glyph-name="iotatonos" unicode="&#x3af;" horiz-adv-x="242" 
d="M91.5 28q-31.5 28 -31.5 94v374h89v-366q0 -25 10 -36.5t33 -11.5h46v-82h-55q-60 0 -91.5 28zM167 759l-20 -205h-84l20 205h84z" />
    <glyph glyph-name="upsilondieresistonos" unicode="&#x3b0;" horiz-adv-x="457" 
d="M101 31q-46 43 -46 121v344h89v-342q0 -40 22.5 -61.5t62.5 -21.5t62 22t22 61v342h89v-344q0 -78 -45 -121t-126 -43q-84 0 -130 43zM288 759l-20 -205h-84l20 205h84zM64 593q-15 15 -15 39t15 39t39 15q25 0 39.5 -14.5t14.5 -39.5q0 -24 -14.5 -39t-39.5 -15
q-24 0 -39 15zM325.5 593q-14.5 15 -14.5 39t15 39t38 15q25 0 40 -14.5t15 -39.5q0 -24 -15.5 -39t-39.5 -15t-38.5 15z" />
    <glyph glyph-name="alpha" unicode="&#x3b1;" horiz-adv-x="477" 
d="M472 82v-82h-47q-65 0 -94 40q-43 -52 -124 -52q-73 0 -116 41.5t-43 111.5v214q0 69 42.5 110.5t112.5 41.5q72 0 114 -45l3 34h78v-366q0 -48 43 -48h31zM271.5 86q23.5 13 38.5 36v252q-15 23 -38 36.5t-51 13.5q-38 0 -60.5 -23.5t-22.5 -63.5v-178q0 -39 23 -62.5
t61 -23.5q26 0 49.5 13z" />
    <glyph glyph-name="beta" unicode="&#x3b2;" horiz-adv-x="457" 
d="M423 209v-51q0 -79 -45.5 -124.5t-124.5 -45.5q-61 0 -106 27v-185h-90v706q0 80 47.5 126t131.5 46q82 0 128 -47t46 -130v-53q0 -93 -66 -128q79 -36 79 -141zM334 220q0 41 -22.5 64t-62.5 23h-42v82h33q39 0 60 21t21 62v64q0 42 -22.5 64.5t-62.5 22.5
q-43 0 -66 -23.5t-23 -65.5v-416q13 -22 37 -33.5t55 -11.5q45 0 70 23t25 66v58z" />
    <glyph glyph-name="gamma" unicode="&#x3b3;" 
d="M423 483l-156 -501v-152h-89v155l-155 498v13h87l113 -374l112 374h88v-13z" />
    <glyph glyph-name="delta" unicode="&#x3b4;" 
d="M378 398.5q20 -38.5 20 -90.5v-154q0 -78 -46.5 -122t-128.5 -44t-128.5 44.5t-46.5 121.5v162q0 74 38 116t112 50l-133 128v86h314v-82h-201l129 -127q51 -50 71 -88.5zM309 310q0 33 -8.5 54.5t-32.5 48.5h-17q-55 0 -84 -25.5t-29 -73.5v-158q0 -39 23 -61.5
t62 -22.5q40 0 63 22.5t23 61.5v154z" />
    <glyph glyph-name="epsilon" unicode="&#x3b5;" horiz-adv-x="422" 
d="M393 162v-20q0 -75 -46 -114.5t-134 -39.5q-83 0 -129.5 37t-46.5 103v20q0 73 68 104q-32 14 -48.5 39.5t-16.5 59.5v20q0 63 47 99.5t129 36.5t128.5 -41t46.5 -112v-19h-88v19q0 34 -24 53.5t-65 19.5t-63 -17t-22 -48v-15q0 -27 19 -41.5t54 -14.5h74v-78h-76
q-36 0 -55.5 -15.5t-19.5 -45.5v-15q0 -32 23.5 -49.5t66.5 -17.5q44 0 67.5 18.5t23.5 53.5v20h87z" />
    <glyph glyph-name="zeta" unicode="&#x3b6;" horiz-adv-x="386" 
d="M334 51q33 -31 33 -87v-16q0 -56 -33 -87t-93 -31h-62v82h55q25 0 36 9t11 30v8q0 21 -11 31t-36 10h-30q-74 0 -117.5 43t-43.5 116v58q0 35 5.5 60.5t24 59.5t56.5 87l137 190h-217v82h317v-82l-173 -245q-36 -51 -48.5 -82.5t-12.5 -68.5v-46q0 -42 23 -66t63 -24h23
q60 0 93 -31z" />
    <glyph glyph-name="eta" unicode="&#x3b7;" horiz-adv-x="483" 
d="M387 466q41 -42 41 -116v-520h-90v505q0 89 -78 89q-29 0 -52.5 -12.5t-37.5 -35.5v-376h-89v363q0 48 -44 48h-32v85h49q64 0 95 -39q43 51 124 51q73 0 114 -42z" />
    <glyph glyph-name="theta" unicode="&#x3b8;" 
d="M348 623.5q46 -44.5 46 -122.5v-347q0 -78 -46.5 -122t-125.5 -44t-124.5 44t-45.5 122v347q0 79 45.5 123t124.5 44q80 0 126 -44.5zM162 560q-23 -24 -23 -65v-127h168v127q0 41 -23.5 65t-61.5 24q-37 0 -60 -24zM283.5 96q23.5 24 23.5 64v128h-168v-128
q0 -41 23 -64.5t60 -23.5q38 0 61.5 24z" />
    <glyph glyph-name="iota" unicode="&#x3b9;" horiz-adv-x="242" 
d="M91.5 28q-31.5 28 -31.5 94v374h89v-366q0 -25 10 -36.5t33 -11.5h46v-82h-55q-60 0 -91.5 28z" />
    <glyph glyph-name="kappa" unicode="&#x3ba;" 
d="M427 13v-13h-96l-118 212l-66 -87v-125h-90v496h90v-227l177 227h97v-13l-148 -198z" />
    <glyph glyph-name="lambda" unicode="&#x3bb;" horiz-adv-x="474" 
d="M451 13v-13h-88l-120 376l-122 -376h-88v13l166 495l-17 52q-10 31 -23 42.5t-42 11.5h-79v82h88q59 0 90 -24t51 -85z" />
    <glyph glyph-name="uni03BC" unicode="&#x3bc;" horiz-adv-x="484" 
d="M480 82v-82h-49q-65 0 -94 38q-17 -23 -44.5 -36.5t-59.5 -13.5q-55 0 -86 28v-186h-90v666h90v-335q0 -88 85 -88q26 0 48.5 12.5t35.5 34.5v376h88v-366q0 -48 44 -48h32z" />
    <glyph glyph-name="nu" unicode="&#x3bd;" 
d="M423 496v-13l-148 -483h-104l-148 483v13h87l113 -377l112 377h88z" />
    <glyph glyph-name="xi" unicode="&#x3be;" horiz-adv-x="430" 
d="M317 509v29q0 40 -22.5 62.5t-62.5 22.5t-62.5 -22.5t-22.5 -62.5v-72q0 -37 22 -57t64 -20h79v-80h-90q-42 0 -64.5 -23.5t-22.5 -66.5v-49q0 -88 87 -88h37q60 0 93 -31t33 -87v-16q0 -56 -33 -87t-93 -31h-65v82h58q25 0 36 9t11 30v8q0 21 -11 31t-36 10h-37
q-77 0 -123 41.5t-46 110.5v60q0 51 21.5 85t63.5 50q-35 18 -54 49t-19 72v73q0 79 45.5 123t128.5 44t128.5 -44t45.5 -123v-32h-89z" />
    <glyph glyph-name="omicron" unicode="&#x3bf;" 
d="M95.5 31q-47.5 43 -47.5 123v187q0 81 47.5 124t127.5 43t127.5 -43t47.5 -124v-187q0 -80 -47.5 -123t-127.5 -43t-127.5 43zM284.5 95.5q23.5 22.5 23.5 62.5v180q0 41 -23.5 63.5t-61.5 22.5t-61.5 -22.5t-23.5 -63.5v-180q0 -40 23.5 -62.5t61.5 -22.5t61.5 22.5z
" />
    <glyph glyph-name="pi" unicode="&#x3c0;" horiz-adv-x="539" 
d="M6 411v85h522v-85h-105v-278q0 -26 9.5 -38.5t32.5 -12.5h51v-82h-67q-56 0 -85.5 31.5t-29.5 92.5v287h-144v-411h-89v411h-95z" />
    <glyph glyph-name="rho" unicode="&#x3c1;" horiz-adv-x="451" 
d="M357.5 464q46.5 -44 46.5 -123v-187q0 -74 -43.5 -120t-113.5 -46q-63 0 -103 35v-193h-89v511q0 78 46 122.5t128 44.5t128.5 -44zM314 338q0 39 -23 62.5t-62 23.5t-62 -23.5t-23 -62.5v-218q14 -22 37 -34.5t49 -12.5q39 0 61.5 23t22.5 63v179z" />
    <glyph glyph-name="uni03C2" unicode="&#x3c2;" horiz-adv-x="436" 
d="M264 -88q26 0 37 9t11 30v8q0 21 -11.5 31t-36.5 10h-44q-80 0 -126 44.5t-46 120.5v176q0 78 47 122t128 44q82 0 128.5 -44t46.5 -122v-52h-89v49q0 39 -23.5 62.5t-62.5 23.5t-62 -23.5t-23 -62.5v-165q0 -42 25.5 -66.5t70.5 -24.5h37q60 0 93.5 -31t33.5 -87v-16
q0 -56 -33.5 -87t-93.5 -31h-63v82h56z" />
    <glyph glyph-name="sigma" unicode="&#x3c3;" horiz-adv-x="456" 
d="M449 411h-86q35 -32 35 -96v-161q0 -77 -46.5 -121.5t-128.5 -44.5t-128.5 44.5t-46.5 121.5v182q0 77 46.5 118.5t134.5 41.5h220v-85zM271 411h-42q-91 0 -91 -86v-167q0 -38 23 -61.5t62 -23.5q40 0 63 23.5t23 61.5v166q0 58 -38 87z" />
    <glyph glyph-name="tau" unicode="&#x3c4;" horiz-adv-x="366" 
d="M148.5 36.5q-35.5 36.5 -35.5 103.5v271h-107v85h334v-85h-138v-263q0 -32 16 -49t45 -17h65v-82h-77q-67 0 -102.5 36.5z" />
    <glyph glyph-name="upsilon" unicode="&#x3c5;" horiz-adv-x="457" 
d="M101 31q-46 43 -46 121v344h89v-342q0 -40 22.5 -61.5t62.5 -21.5t62 22t22 61v342h89v-344q0 -78 -45 -121t-126 -43q-84 0 -130 43z" />
    <glyph glyph-name="phi" unicode="&#x3c6;" horiz-adv-x="614" 
d="M511 446q52 -50 52 -137v-122q0 -87 -52 -137t-142 -50h-17v-170h-88v170h-19q-90 0 -142 50t-52 137v122q0 87 52 137t142 50h19v190h88v-190h17q90 0 142 -50zM264 82v333h-20q-50 0 -77.5 -28.5t-27.5 -81.5v-114q0 -52 27.5 -80.5t77.5 -28.5h20zM476 305
q0 53 -27.5 81.5t-78.5 28.5h-18v-333h18q50 0 78 28.5t28 80.5v114z" />
    <glyph glyph-name="chi" unicode="&#x3c7;" horiz-adv-x="434" 
d="M409 -157v-13h-88l-104 252l-102 -252h-89v13l136 323l-133 317v13h87l101 -246l101 246h85v-13l-132 -317z" />
    <glyph glyph-name="psi" unicode="&#x3c8;" horiz-adv-x="636" 
d="M581 495v-320q0 -85 -47 -130t-137 -45h-35v-170h-88v170h-35q-89 0 -136.5 45t-47.5 130v320h87v-316q0 -47 24.5 -72t72.5 -25h35v615h88v-615h35q97 0 97 97v316h87z" />
    <glyph glyph-name="omega" unicode="&#x3c9;" horiz-adv-x="664" 
d="M574.5 452.5q41.5 -43.5 41.5 -126.5v-173q0 -76 -44.5 -120.5t-119.5 -44.5q-82 0 -120 61q-38 -61 -120 -61q-75 0 -119.5 44.5t-44.5 120.5v173q0 83 41.5 126.5t119.5 43.5h16v-81h-13q-75 0 -75 -86v-169q0 -42 22 -65.5t60 -23.5q48 0 69 42v254h89v-257
q21 -39 68 -39q38 0 60 23.5t22 65.5v169q0 86 -75 86h-13v81h16q78 0 119.5 -43.5z" />
    <glyph glyph-name="iotadieresis" unicode="&#x3ca;" horiz-adv-x="242" 
d="M91.5 28q-31.5 28 -31.5 94v374h89v-366q0 -25 10 -36.5t33 -11.5h46v-82h-55q-60 0 -91.5 28zM-23 592.5q-15 14.5 -15 39.5q0 24 15 39t39 15t39 -14.5t15 -39.5t-15 -39.5t-39 -14.5t-39 14.5zM154 592.5q-15 14.5 -15 39.5q0 24 15 39t39 15t39.5 -15t15.5 -39
t-15.5 -39t-39.5 -15t-39 14.5z" />
    <glyph glyph-name="upsilondieresis" unicode="&#x3cb;" horiz-adv-x="457" 
d="M101 31q-46 43 -46 121v344h89v-342q0 -40 22.5 -61.5t62.5 -21.5t62 22t22 61v342h89v-344q0 -78 -45 -121t-126 -43q-84 0 -130 43zM102 592.5q-15 14.5 -15 39.5q0 24 15 39t39 15t39 -14.5t15 -39.5t-15 -39.5t-39 -14.5t-39 14.5zM279 592.5q-15 14.5 -15 39.5
q0 24 15 39t39 15t39.5 -15t15.5 -39t-15.5 -39t-39.5 -15t-39 14.5z" />
    <glyph glyph-name="omicrontonos" unicode="&#x3cc;" 
d="M95.5 31q-47.5 43 -47.5 123v187q0 81 47.5 124t127.5 43t127.5 -43t47.5 -124v-187q0 -80 -47.5 -123t-127.5 -43t-127.5 43zM284.5 95.5q23.5 22.5 23.5 62.5v180q0 41 -23.5 63.5t-61.5 22.5t-61.5 -22.5t-23.5 -63.5v-180q0 -40 23.5 -62.5t61.5 -22.5t61.5 22.5z
M285 759l-20 -205h-84l20 205h84z" />
    <glyph glyph-name="upsilontonos" unicode="&#x3cd;" horiz-adv-x="457" 
d="M101 31q-46 43 -46 121v344h89v-342q0 -40 22.5 -61.5t62.5 -21.5t62 22t22 61v342h89v-344q0 -78 -45 -121t-126 -43q-84 0 -130 43zM292 759l-20 -205h-84l20 205h84z" />
    <glyph glyph-name="omegatonos" unicode="&#x3ce;" horiz-adv-x="664" 
d="M574.5 452.5q41.5 -43.5 41.5 -126.5v-173q0 -76 -44.5 -120.5t-119.5 -44.5q-82 0 -120 61q-38 -61 -120 -61q-75 0 -119.5 44.5t-44.5 120.5v173q0 83 41.5 126.5t119.5 43.5h16v-81h-13q-75 0 -75 -86v-169q0 -42 22 -65.5t60 -23.5q48 0 69 42v254h89v-257
q21 -39 68 -39q38 0 60 23.5t22 65.5v169q0 86 -75 86h-13v81h16q78 0 119.5 -43.5zM394 759l-20 -205h-84l20 205h84z" />
    <glyph glyph-name="uni0400" unicode="&#x400;" horiz-adv-x="429" 
d="M400 656v-85h-247v-201h232v-84h-232v-201h247v-85h-340v656h340zM96 864l268 -64v-80l-268 65v79z" />
    <glyph glyph-name="uni0401" unicode="&#x401;" horiz-adv-x="429" 
d="M400 656v-85h-247v-201h232v-84h-232v-201h247v-85h-340v656h340zM102 752.5q-15 14.5 -15 39.5q0 24 15 39t39 15t39 -14.5t15 -39.5t-15 -39.5t-39 -14.5t-39 14.5zM279 752.5q-15 14.5 -15 39.5q0 24 15 39t39 15t39.5 -15t15.5 -39t-15.5 -39t-39.5 -15t-39 14.5z
" />
    <glyph glyph-name="uni0402" unicode="&#x402;" horiz-adv-x="585" 
d="M482.5 352.5q47.5 -42.5 47.5 -124.5v-61q0 -80 -46 -123.5t-131 -43.5h-31v84h28q42 0 65 23t23 65v46q0 46 -26 70t-75 24q-47 0 -95 -9v-303h-93v571h-139v85h413v-85h-181v-188q56 12 102 12q91 0 138.5 -42.5z" />
    <glyph glyph-name="uni0403" unicode="&#x403;" horiz-adv-x="396" 
d="M386 656v-85h-233v-571h-93v656h326zM366 864v-79l-268 -65v80z" />
    <glyph glyph-name="uni0404" unicode="&#x404;" horiz-adv-x="502" 
d="M363 435v32q0 55 -28 85.5t-79 30.5q-50 0 -78 -29t-28 -82v-102h168v-84h-168v-103q0 -52 28 -81t78 -29q52 0 79.5 30t27.5 86v34h91v-34q0 -98 -50 -149.5t-147 -51.5q-92 0 -145 50.5t-53 138.5v302q0 87 53.5 138t144.5 51q94 0 145.5 -52.5t51.5 -148.5v-32h-91z
" />
    <glyph glyph-name="uni0405" unicode="&#x405;" horiz-adv-x="458" 
d="M87.5 37.5q-48.5 49.5 -48.5 141.5v30h90v-30q0 -52 25 -79.5t73 -27.5q47 0 73.5 24t26.5 67v11q0 37 -20.5 63t-69.5 48l-53 24q-70 31 -103 72t-33 99v19q0 76 50 122.5t135 46.5t133 -46.5t48 -130.5v-30h-91v30q0 46 -22 69.5t-69 23.5q-44 0 -68.5 -21.5
t-24.5 -60.5v-11q0 -34 18 -57.5t66 -44.5l55 -24q74 -32 108 -75.5t34 -105.5v-19q0 -80 -52 -128.5t-141 -48.5q-91 0 -139.5 49.5z" />
    <glyph glyph-name="uni0406" unicode="&#x406;" horiz-adv-x="220" 
d="M156 656v-656h-92v656h92z" />
    <glyph glyph-name="uni0407" unicode="&#x407;" horiz-adv-x="220" 
d="M156 656v-656h-92v656h92zM-18 752.5q-15 14.5 -15 39.5q0 24 15 39t39 15t39 -14.5t15 -39.5t-15 -39.5t-39 -14.5t-39 14.5zM159 752.5q-15 14.5 -15 39.5q0 24 15 39t39 15t39.5 -15t15.5 -39t-15.5 -39t-39.5 -15t-39 14.5z" />
    <glyph glyph-name="uni0408" unicode="&#x408;" horiz-adv-x="459" 
d="M84.5 36q-47.5 48 -47.5 134v86h92v-86q0 -47 23 -72t66 -25t66 24t23 68v406h-201v85h293v-499q0 -78 -49 -123.5t-132 -45.5q-86 0 -133.5 48z" />
    <glyph glyph-name="uni0409" unicode="&#x409;" horiz-adv-x="769" 
d="M690 349q48 -46 48 -136v-31q0 -89 -48 -135.5t-140 -46.5h-192v571h-160l-6 -388q-1 -93 -38.5 -138t-112.5 -45h-37v85h25q38 0 56.5 26t19.5 81l6 379h-2v85h342v-261h99q92 0 140 -46zM646 214q0 97 -103 97h-92v-227h92q103 0 103 99v31z" />
    <glyph glyph-name="uni040A" unicode="&#x40a;" horiz-adv-x="758" 
d="M153 656v-277h192v277h92v-277h102q188 0 188 -174v-31q0 -85 -48 -129.5t-140 -44.5h-194v295h-192v-295h-93v656h93zM635 175v31q0 47 -24.5 68t-78.5 21h-95v-211h95q103 0 103 91z" />
    <glyph glyph-name="uni040B" unicode="&#x40b;" horiz-adv-x="579" 
d="M483.5 344.5q43.5 -44.5 43.5 -128.5v-216h-93v210q0 93 -97 93q-43 0 -96 -7v-296h-92v571h-139v85h412v-85h-181v-195q55 13 117 13q82 0 125.5 -44.5z" />
    <glyph glyph-name="uni040C" unicode="&#x40c;" horiz-adv-x="492" 
d="M457 14v-14h-96l-136 286h-72v-286h-93v656h93v-286h72l134 286h94v-14l-149 -313zM379 864v-79l-268 -65v80z" />
    <glyph glyph-name="uni040D" unicode="&#x40d;" horiz-adv-x="504" 
d="M151 656v-462l199 462h94v-656h-91v463l-197 -463h-96v656h91zM120 864l268 -64v-80l-268 65v79z" />
    <glyph glyph-name="uni040E" unicode="&#x40e;" horiz-adv-x="459" 
d="M454 656v-14l-175 -535q-19 -57 -51.5 -82t-89.5 -25h-69v85h63q26 0 39.5 11.5t23.5 41.5v1l-172 503v14h92l127 -395l123 395h89zM137 755.5q-36 30.5 -36 82.5v14h78v-14q0 -17 15.5 -27.5t40.5 -10.5t40.5 10.5t15.5 27.5v14h78v-14q0 -52 -36.5 -82.5t-97.5 -30.5
q-62 0 -98 30.5z" />
    <glyph glyph-name="uni040F" unicode="&#x40f;" horiz-adv-x="500" 
d="M440 0h-145v-133h-90v133h-145v656h93v-571h194v571h93v-656z" />
    <glyph glyph-name="uni0410" unicode="&#x410;" horiz-adv-x="499" 
d="M473 14v-14h-94l-36 146h-186l-36 -146h-94v14l169 642h109zM322 229l-72 294l-72 -294h144z" />
    <glyph glyph-name="uni0411" unicode="&#x411;" horiz-adv-x="491" 
d="M411 656v-85h-258v-188h110q93 0 140.5 -45t47.5 -131v-31q0 -86 -47.5 -131t-140.5 -45h-203v656h351zM332.5 106q26.5 22 26.5 70v31q0 44 -24 68t-79 24h-103v-215h103q50 0 76.5 22z" />
    <glyph glyph-name="uni0412" unicode="&#x412;" horiz-adv-x="483" 
d="M419.5 277.5q23.5 -37.5 23.5 -90.5v-20q0 -78 -48.5 -122.5t-133.5 -44.5h-201v656h190q86 0 134 -42.5t48 -119.5v-20q0 -50 -20.5 -85.5t-58.5 -54.5q43 -19 66.5 -56.5zM153 572v-198h88q48 0 73.5 23.5t25.5 68.5v18q0 88 -100 88h-87zM351 195q0 46 -26 71t-73 25
h-99v-207h97q50 0 75.5 23.5t25.5 69.5v18z" />
    <glyph glyph-name="uni0413" unicode="&#x413;" horiz-adv-x="396" 
d="M386 656v-85h-233v-571h-93v656h326z" />
    <glyph glyph-name="uni0414" unicode="&#x414;" horiz-adv-x="553" 
d="M525 85v-218h-92v133h-324v-133h-93v218h56q39 79 41 209l5 362h345v-571h62zM161 85h210v486h-167l-5 -284q-1 -121 -38 -202z" />
    <glyph glyph-name="uni0415" unicode="&#x415;" horiz-adv-x="429" 
d="M400 656v-85h-247v-201h232v-84h-232v-201h247v-85h-340v656h340z" />
    <glyph glyph-name="uni0416" unicode="&#x416;" horiz-adv-x="744" 
d="M709 14v-14h-95l-124 286h-72v-286h-92v286h-71l-125 -286h-95v14l137 315l-133 313v14h94l122 -286h71v286h92v-286h72l122 286h93v-14l-133 -314z" />
    <glyph glyph-name="uni0417" unicode="&#x417;" horiz-adv-x="487" 
d="M422 278q21 -34 21 -80v-37q0 -51 -24.5 -90.5t-69 -61t-102.5 -21.5q-97 0 -148.5 51t-51.5 148v35h93v-35q0 -59 26.5 -86.5t81.5 -27.5q46 0 74 27t28 71v26q0 43 -25 66t-72 23h-59v84h62q39 0 62 24t23 65v25q0 46 -26 72.5t-70 26.5q-50 0 -76 -29.5t-26 -85.5v-34
h-93v34q0 96 50 148t144 52q85 0 137.5 -48t52.5 -126v-38q0 -41 -19 -73.5t-53 -52.5q39 -18 60 -52z" />
    <glyph glyph-name="uni0418" unicode="&#x418;" horiz-adv-x="504" 
d="M151 656v-462l199 462h94v-656h-91v463l-197 -463h-96v656h91z" />
    <glyph glyph-name="uni0419" unicode="&#x419;" horiz-adv-x="504" 
d="M151 656v-462l199 462h94v-656h-91v463l-197 -463h-96v656h91zM156 755.5q-36 30.5 -36 82.5v14h78v-14q0 -17 15.5 -27.5t40.5 -10.5t40.5 10.5t15.5 27.5v14h78v-14q0 -52 -36.5 -82.5t-97.5 -30.5q-62 0 -98 30.5z" />
    <glyph glyph-name="uni041A" unicode="&#x41a;" horiz-adv-x="492" 
d="M457 14v-14h-96l-136 286h-72v-286h-93v656h93v-286h72l134 286h94v-14l-149 -313z" />
    <glyph glyph-name="uni041B" unicode="&#x41b;" horiz-adv-x="515" 
d="M455 0h-93v571h-164l-6 -388q-1 -93 -38.5 -138t-112.5 -45h-37v85h25q38 0 56.5 26t19.5 81l6 379h-2v85h346v-656z" />
    <glyph glyph-name="uni041C" unicode="&#x41c;" horiz-adv-x="629" 
d="M569 0h-90v478l-132 -478h-65l-132 475v-475h-90v656h120l134 -472l134 472h121v-656z" />
    <glyph glyph-name="uni041D" unicode="&#x41d;" horiz-adv-x="499" 
d="M153 656v-286h193v286h93v-656h-93v286h-193v-286h-93v656h93z" />
    <glyph glyph-name="uni041E" unicode="&#x41e;" horiz-adv-x="512" 
d="M112 38.5q-53 50.5 -53 138.5v302q0 87 53 138t144 51t144 -51t53 -138v-302q0 -87 -53 -138t-144 -51t-144 50.5zM333.5 102q27.5 29 27.5 81v289q0 53 -27.5 82t-77.5 29t-77.5 -29t-27.5 -82v-289q0 -52 27.5 -81t77.5 -29t77.5 29z" />
    <glyph glyph-name="uni041F" unicode="&#x41f;" horiz-adv-x="504" 
d="M444 656v-656h-93v571h-198v-571h-93v656h384z" />
    <glyph glyph-name="uni0420" unicode="&#x420;" horiz-adv-x="482" 
d="M263 656q91 0 139.5 -46.5t48.5 -134.5v-20q0 -89 -48 -135t-140 -46h-110v-274h-93v656h203zM359 455v20q0 96 -103 96h-103v-213h103q103 0 103 97z" />
    <glyph glyph-name="uni0421" unicode="&#x421;" horiz-adv-x="502" 
d="M112 38.5q-53 50.5 -53 138.5v302q0 88 53 138.5t145 50.5q98 0 147.5 -52.5t49.5 -155.5v-60h-92v60q0 123 -106 123q-50 0 -77.5 -29t-27.5 -82v-289q0 -53 27.5 -81.5t77.5 -28.5q106 0 106 119v62h92v-62q0 -100 -50 -152t-147 -52q-92 0 -145 50.5z" />
    <glyph glyph-name="uni0422" unicode="&#x422;" horiz-adv-x="404" 
d="M10 571v85h384v-85h-146v-571h-92v571h-146z" />
    <glyph glyph-name="uni0423" unicode="&#x423;" horiz-adv-x="459" 
d="M454 656v-14l-175 -535q-19 -57 -51.5 -82t-89.5 -25h-69v85h63q26 0 39.5 11.5t23.5 41.5v1l-172 503v14h92l127 -395l123 395h89z" />
    <glyph glyph-name="uni0424" unicode="&#x424;" horiz-adv-x="628" 
d="M542.5 544.5q54.5 -54.5 54.5 -161.5v-112q0 -106 -54.5 -159.5t-161.5 -53.5h-21v-70h-92v70h-21q-107 0 -161.5 53.5t-54.5 159.5v112q0 107 54.5 161.5t161.5 54.5h21v69h92v-69h21q107 0 161.5 -54.5zM247 142h22v372h-22q-64 0 -95 -33t-31 -101v-105
q0 -133 126 -133zM507 380q0 68 -31 101t-95 33h-22v-372h22q126 0 126 133v105z" />
    <glyph glyph-name="uni0425" unicode="&#x425;" horiz-adv-x="496" 
d="M461 14v-14h-93l-120 255l-120 -255h-93v14l153 317l-151 311v14h93l118 -249l116 249h94v-14l-149 -311z" />
    <glyph glyph-name="uni0426" unicode="&#x426;" horiz-adv-x="531" 
d="M503 85v-218h-92v133h-351v656h93v-571h196v571h92v-571h62z" />
    <glyph glyph-name="uni0427" unicode="&#x427;" horiz-adv-x="490" 
d="M430 656v-656h-93v263q-53 -12 -104 -12q-89 0 -135 44t-46 129v232h93v-226q0 -94 103 -94q36 0 89 10v310h93z" />
    <glyph glyph-name="uni0428" unicode="&#x428;" horiz-adv-x="772" 
d="M153 656v-571h187v571h92v-571h187v571h93v-656h-652v656h93z" />
    <glyph glyph-name="uni0429" unicode="&#x429;" horiz-adv-x="805" 
d="M777 85v-218h-92v133h-625v656h93v-571h188v571h93v-571h189v571h92v-571h62z" />
    <glyph glyph-name="uni042A" unicode="&#x42a;" horiz-adv-x="571" 
d="M492 349q48 -46 48 -136v-31q0 -90 -48 -136t-140 -46h-203v571h-139v85h232v-261h110q92 0 140 -46zM448 214q0 49 -25.5 73t-77.5 24h-103v-227h103q103 0 103 99v31z" />
    <glyph glyph-name="uni042B" unicode="&#x42b;" horiz-adv-x="670" 
d="M155 656v-261h108q92 0 140 -46t48 -136v-31q0 -89 -48 -135.5t-140 -46.5h-200v656h92zM607 656v-656h-92v656h92zM358 183v31q0 97 -102 97h-101v-227h101q102 0 102 99z" />
    <glyph glyph-name="uni042C" unicode="&#x42c;" horiz-adv-x="482" 
d="M153 656v-261h110q92 0 140 -46t48 -136v-31q0 -90 -48 -136t-140 -46h-203v656h93zM359 183v31q0 49 -25.5 73t-77.5 24h-103v-227h103q103 0 103 99z" />
    <glyph glyph-name="uni042D" unicode="&#x42d;" horiz-adv-x="502" 
d="M389.5 617q53.5 -51 53.5 -138v-302q0 -88 -53 -138.5t-145 -50.5q-97 0 -147 51.5t-50 149.5v34h91v-34q0 -56 27.5 -86t79.5 -30q50 0 78 29t28 81v103h-168v84h168v102q0 53 -28 82t-78 29q-51 0 -79 -30.5t-28 -85.5v-32h-91v32q0 96 51.5 148.5t145.5 52.5
q91 0 144.5 -51z" />
    <glyph glyph-name="uni042E" unicode="&#x42e;" horiz-adv-x="721" 
d="M608.5 617.5q53.5 -50.5 53.5 -135.5v-309q0 -85 -53 -135t-145 -50q-89 0 -140.5 49.5t-51.5 135.5v113h-119v-286h-93v656h93v-286h119v112q0 86 51 135.5t141 50.5q91 0 144.5 -50.5zM570 476q0 50 -27.5 78.5t-75.5 28.5q-49 0 -76 -28.5t-27 -78.5v-298
q0 -50 27 -77.5t76 -27.5q48 0 75.5 28t27.5 77v298z" />
    <glyph glyph-name="uni042F" unicode="&#x42f;" horiz-adv-x="486" 
d="M426 656v-656h-93v263h-54l-152 -263h-92v14l143 253q-71 11 -107 57t-36 125v20q0 92 48.5 139.5t142.5 47.5h200zM333 571h-100q-54 0 -80.5 -25t-26.5 -77v-20q0 -52 26 -77.5t81 -25.5h100v225z" />
    <glyph glyph-name="uni0430" unicode="&#x430;" horiz-adv-x="462" 
d="M457 82v-82h-47q-66 0 -95 40q-43 -52 -126 -52q-69 0 -109.5 38t-40.5 103q0 62 38.5 98t118.5 50l99 17v48q0 40 -20.5 61.5t-59.5 21.5q-42 0 -63 -22.5t-21 -64.5v-10h-89v10q0 83 44 126.5t126 43.5q84 0 127.5 -43.5t43.5 -127.5v-207q0 -48 43 -48h31zM255.5 81.5
q26.5 16.5 39.5 44.5v94l-79 -13q-89 -15 -89 -76q0 -31 19 -48.5t52 -17.5q31 0 57.5 16.5z" />
    <glyph glyph-name="uni0431" unicode="&#x431;" horiz-adv-x="451" 
d="M360 428.5q44 -44.5 44 -117.5v-158q0 -77 -46.5 -121t-127.5 -44q-85 0 -130.5 48t-45.5 137v234q0 80 16.5 128.5t53.5 75t101 37.5l50 9q18 3 24.5 8t6.5 16v15h81v-22q0 -42 -21 -63.5t-71 -29.5l-46 -8q-63 -11 -90 -38t-27 -80v-29q20 23 49 35t63 12
q72 0 116 -44.5zM316 300q0 41 -24 65t-65 24q-26 0 -48 -11t-35 -32v-172q0 -49 22 -75.5t63 -26.5q39 0 63 24t24 62v142z" />
    <glyph glyph-name="uni0432" unicode="&#x432;" horiz-adv-x="455" 
d="M418 148v-20q0 -63 -38 -95.5t-113 -32.5h-210v496h198q152 0 152 -125v-20q0 -71 -65 -98q76 -27 76 -105zM147 421v-132h92q37 0 57 15t20 43v15q0 29 -20 44t-57 15h-92zM327 153q0 28 -20.5 44.5t-55.5 16.5h-104v-138h104q36 0 56 16.5t20 46.5v14z" />
    <glyph glyph-name="uni0433" unicode="&#x433;" horiz-adv-x="330" 
d="M320 496v-81h-173v-415h-90v496h263z" />
    <glyph glyph-name="uni0434" unicode="&#x434;" horiz-adv-x="516" 
d="M495 82v-210h-90v128h-293v-128h-89v210h51q41 66 42 169l2 245h314v-414h63zM342 82v333h-141l-2 -170q-1 -99 -35 -163h178z" />
    <glyph glyph-name="uni0435" unicode="&#x435;" 
d="M137 219v-67q0 -37 23.5 -58.5t62.5 -21.5q40 0 63 22.5t23 63.5h89q-2 -82 -48 -126t-127 -44q-82 0 -128.5 44t-46.5 122v187q0 79 46.5 123t128.5 44t128.5 -44t46.5 -123v-122h-261zM160.5 402.5q-23.5 -22.5 -23.5 -59.5v-50h172v50q0 37 -23.5 59.5t-62.5 22.5
t-62.5 -22.5z" />
    <glyph glyph-name="uni0436" unicode="&#x436;" horiz-adv-x="684" 
d="M658 13v-13h-97l-118 208h-56v-208h-90v208h-57l-118 -208h-96v13l135 236l-129 234v13h94l115 -208h56v208h90v-208h56l115 208h93v-13l-129 -234z" />
    <glyph glyph-name="uni0437" unicode="&#x437;" horiz-adv-x="422" 
d="M385 148v-20q0 -66 -46.5 -103t-129.5 -37q-87 0 -133.5 40.5t-46.5 115.5v20h87v-20q0 -37 23.5 -55.5t67.5 -18.5q43 0 66.5 17.5t23.5 49.5v15q0 30 -19.5 45.5t-55.5 15.5h-76v78h74q35 0 54 14.5t19 41.5v15q0 32 -22 48.5t-63 16.5t-65 -20t-24 -55v-19h-88v19
q0 72 46.5 113.5t128.5 41.5t129 -36.5t47 -99.5v-20q0 -34 -16.5 -59.5t-48.5 -39.5q68 -31 68 -104z" />
    <glyph glyph-name="uni0438" unicode="&#x438;" horiz-adv-x="461" 
d="M143 496v-334l177 334h84v-496h-86v335l-178 -335h-83v496h86z" />
    <glyph glyph-name="uni0439" unicode="&#x439;" horiz-adv-x="461" 
d="M143 496v-334l177 334h84v-496h-86v335l-178 -335h-83v496h86zM132 595.5q-36 30.5 -36 82.5v14h78v-14q0 -17 15.5 -27.5t40.5 -10.5t40.5 10.5t15.5 27.5v14h78v-14q0 -52 -36.5 -82.5t-97.5 -30.5q-62 0 -98 30.5z" />
    <glyph glyph-name="uni043A" unicode="&#x43a;" horiz-adv-x="453" 
d="M427 13v-13h-96l-126 208h-58v-208h-90v496h90v-208h57l123 208h94v-13l-137 -234z" />
    <glyph glyph-name="uni043B" unicode="&#x43b;" horiz-adv-x="464" 
d="M407 0h-90v415h-139l-5 -261q-2 -81 -33 -117.5t-98 -36.5h-29v82h18q28 0 42 19t15 60l5 335h314v-496z" />
    <glyph glyph-name="uni043C" unicode="&#x43c;" horiz-adv-x="588" 
d="M531 496v-496h-84v375l-8 -34l-104 -341h-82l-105 341l-8 34v-375h-83v496h122l115 -384l115 384h122z" />
    <glyph glyph-name="uni043D" unicode="&#x43d;" horiz-adv-x="467" 
d="M147 496v-206h173v206h90v-496h-90v207h-173v-207h-90v496h90z" />
    <glyph glyph-name="uni043E" unicode="&#x43e;" 
d="M95.5 31q-47.5 43 -47.5 123v187q0 81 47.5 124t127.5 43t127.5 -43t47.5 -124v-187q0 -80 -47.5 -123t-127.5 -43t-127.5 43zM284.5 95.5q23.5 22.5 23.5 62.5v180q0 41 -23.5 63.5t-61.5 22.5t-61.5 -22.5t-23.5 -63.5v-180q0 -40 23.5 -62.5t61.5 -22.5t61.5 22.5z
" />
    <glyph glyph-name="uni043F" unicode="&#x43f;" horiz-adv-x="467" 
d="M410 496v-496h-90v415h-173v-415h-90v496h353z" />
    <glyph glyph-name="uni0440" unicode="&#x440;" horiz-adv-x="454" 
d="M364 467q43 -41 43 -112v-214q0 -71 -43 -112t-113 -41q-63 0 -104 33v-191h-90v666h78l4 -33q42 45 113 45q69 0 112 -41zM317 335q0 41 -23 65t-62 24q-26 0 -48 -13t-37 -35v-255q15 -22 37 -35t48 -13q39 0 62 24t23 66v172z" />
    <glyph glyph-name="uni0441" unicode="&#x441;" horiz-adv-x="442" 
d="M94.5 32q-46.5 44 -46.5 122v187q0 79 46 123t129 44q82 0 128 -44t46 -123v-42h-90v39q0 39 -22.5 62.5t-61.5 23.5t-62 -23.5t-23 -62.5v-180q0 -38 23 -61.5t62 -23.5t61.5 23t22.5 62v36h90v-40q0 -78 -46 -122t-128 -44t-128.5 44z" />
    <glyph glyph-name="uni0442" unicode="&#x442;" horiz-adv-x="387" 
d="M10 415v81h367v-81h-138v-415h-90v415h-139z" />
    <glyph glyph-name="uni0443" unicode="&#x443;" horiz-adv-x="464" 
d="M441 496v-13l-178 -546q-19 -59 -51.5 -83t-92.5 -24h-55v82h47q29 0 43 11t23 42l11 38l-165 480v13h94l118 -367l112 367h94z" />
    <glyph glyph-name="uni0444" unicode="&#x444;" horiz-adv-x="614" 
d="M511 446q52 -50 52 -137v-122q0 -87 -52 -137t-142 -50h-17v-170h-88v170h-19q-90 0 -142 50t-52 137v122q0 87 52 137t142 50h19v190h88v-190h17q90 0 142 -50zM264 82v333h-20q-50 0 -77.5 -28.5t-27.5 -81.5v-114q0 -52 27.5 -80.5t77.5 -28.5h20zM476 305
q0 53 -27.5 81.5t-78.5 28.5h-18v-333h18q50 0 78 28.5t28 80.5v114z" />
    <glyph glyph-name="uni0445" unicode="&#x445;" horiz-adv-x="436" 
d="M410 13v-13h-93l-99 174l-99 -174h-92v13l136 237l-133 233v13h93l96 -169l95 169h93v-13l-133 -233z" />
    <glyph glyph-name="uni0446" unicode="&#x446;" horiz-adv-x="494" 
d="M473 81v-209h-90v128h-326v496h90v-415h174v415h89v-415h63z" />
    <glyph glyph-name="uni0447" unicode="&#x447;" horiz-adv-x="450" 
d="M393 496v-496h-90v170q-46 -9 -91 -9q-79 0 -123 36.5t-44 101.5v197h88v-178q0 -37 24 -57t67 -20q33 0 79 10v245h90z" />
    <glyph glyph-name="uni0448" unicode="&#x448;" horiz-adv-x="704" 
d="M147 496v-415h160v415h89v-415h161v415h90v-496h-590v496h90z" />
    <glyph glyph-name="uni0449" unicode="&#x449;" horiz-adv-x="735" 
d="M709 81v-209h-89v128h-563v496h90v-415h160v415h89v-415h161v415h90v-415h62z" />
    <glyph glyph-name="uni044A" unicode="&#x44a;" horiz-adv-x="526" 
d="M455 291q44 -41 44 -119v-12q0 -77 -44 -118.5t-127 -41.5h-185v415h-133v81h223v-164h95q83 0 127 -41zM410 172q0 80 -91 80h-86v-172h86q91 0 91 80v12z" />
    <glyph glyph-name="uni044B" unicode="&#x44b;" horiz-adv-x="611" 
d="M365 290.5q44 -41.5 44 -118.5v-12q0 -77 -44.5 -118.5t-126.5 -41.5h-179v496h90v-164h89q83 0 127 -41.5zM552 496v-496h-90v496h90zM320 172q0 80 -91 80h-80v-172h80q91 0 91 80v12z" />
    <glyph glyph-name="uni044C" unicode="&#x44c;" horiz-adv-x="440" 
d="M369 291q44 -41 44 -119v-12q0 -77 -44 -118.5t-127 -41.5h-185v496h90v-164h95q83 0 127 -41zM324 172q0 80 -91 80h-86v-172h86q91 0 91 80v12z" />
    <glyph glyph-name="uni044D" unicode="&#x44d;" 
d="M349 464q46 -44 46 -123v-187q0 -78 -46.5 -122t-128.5 -44q-81 0 -128 44t-47 121v13h86v-14q0 -39 24 -62t65 -23t65.5 23t24.5 62v58h-141v78h141v55q0 40 -24.5 63.5t-65.5 23.5t-65 -23.5t-24 -63.5v-14h-86v14q0 77 46.5 121t128.5 44q83 0 129 -44z" />
    <glyph glyph-name="uni044E" unicode="&#x44e;" horiz-adv-x="620" 
d="M526 464q46 -44 46 -123v-187q0 -78 -46 -122t-127 -44q-79 0 -123.5 44t-44.5 122v53h-84v-207h-90v496h90v-206h84v51q0 79 44.5 123t123.5 44q81 0 127 -44zM483 338q0 39 -22.5 62.5t-58.5 23.5q-37 0 -59.5 -23.5t-22.5 -62.5v-180q0 -38 22.5 -61.5t59.5 -23.5
q36 0 58.5 23t22.5 62v180z" />
    <glyph glyph-name="uni044F" unicode="&#x44f;" horiz-adv-x="457" 
d="M400 0h-90v178h-56l-125 -178h-95v12l123 172q-56 12 -87 49t-31 93v20q0 70 46.5 110t127.5 40h187v-496zM310 254v163h-89q-43 0 -68 -19.5t-25 -51.5v-19q0 -34 25 -53.5t68 -19.5h89z" />
    <glyph glyph-name="uni0450" unicode="&#x450;" 
d="M137 219v-67q0 -37 23.5 -58.5t62.5 -21.5q40 0 63 22.5t23 63.5h89q-2 -82 -48 -126t-127 -44q-82 0 -128.5 44t-46.5 122v187q0 79 46.5 123t128.5 44t128.5 -44t46.5 -123v-122h-261zM160.5 402.5q-23.5 -22.5 -23.5 -59.5v-50h172v50q0 37 -23.5 59.5t-62.5 22.5
t-62.5 -22.5zM89 704l268 -64v-80l-268 65v79z" />
    <glyph glyph-name="uni0451" unicode="&#x451;" 
d="M137 219v-67q0 -37 23.5 -58.5t62.5 -21.5q40 0 63 22.5t23 63.5h89q-2 -82 -48 -126t-127 -44q-82 0 -128.5 44t-46.5 122v187q0 79 46.5 123t128.5 44t128.5 -44t46.5 -123v-122h-261zM160.5 402.5q-23.5 -22.5 -23.5 -59.5v-50h172v50q0 37 -23.5 59.5t-62.5 22.5
t-62.5 -22.5zM95 592.5q-15 14.5 -15 39.5q0 24 15 39t39 15t39 -14.5t15 -39.5t-15 -39.5t-39 -14.5t-39 14.5zM272 592.5q-15 14.5 -15 39.5q0 24 15 39t39 15t39.5 -15t15.5 -39t-15.5 -39t-39.5 -15t-39 14.5z" />
    <glyph glyph-name="uni0452" unicode="&#x452;" horiz-adv-x="469" 
d="M374.5 456.5q39.5 -41.5 39.5 -117.5v-345q0 -80 -40 -122t-116 -42h-39v82h29q37 0 57.5 22.5t20.5 63.5v326q0 89 -84 89q-26 0 -48.5 -13t-36.5 -36v-364h-90v567h-63v77h63v52h90v-52h121v-77h-121v-109q43 40 106 40q72 0 111.5 -41.5z" />
    <glyph glyph-name="uni0453" unicode="&#x453;" horiz-adv-x="330" 
d="M320 496v-81h-173v-415h-90v496h263zM318 704v-79l-268 -65v80z" />
    <glyph glyph-name="uni0454" unicode="&#x454;" 
d="M313 329v14q0 40 -24.5 63.5t-65.5 23.5t-65 -23.5t-24 -63.5v-55h140v-78h-140v-58q0 -39 24 -62t65 -23t65.5 23t24.5 62v14h85v-14q0 -76 -46.5 -120t-127.5 -44q-83 0 -129.5 44t-46.5 122v187q0 79 46.5 123t129.5 44q82 0 128 -44t46 -121v-14h-85z" />
    <glyph glyph-name="uni0455" unicode="&#x455;" horiz-adv-x="427" 
d="M88 27.5q-44 39.5 -44 113.5v18h88v-18q0 -34 21.5 -53.5t59.5 -19.5q37 0 59 17t22 45v8q0 26 -17.5 42.5t-55.5 27.5l-49 13q-60 16 -90 50.5t-30 84.5v15q0 62 44.5 99.5t120.5 37.5q78 0 121 -39t43 -110v-18h-87v18q0 32 -21.5 50.5t-57.5 18.5q-34 0 -54.5 -15
t-20.5 -41v-9q0 -24 15 -39.5t47 -24.5l58 -16q64 -18 94 -50.5t30 -89.5v-14q0 -65 -45.5 -103t-124.5 -38q-82 0 -126 39.5z" />
    <glyph glyph-name="uni0456" unicode="&#x456;" horiz-adv-x="210" 
d="M149 496v-496h-89v496h89zM61.5 588q-17.5 17 -17.5 44t17 44t44 17t44 -16.5t17 -44.5q0 -27 -17 -44t-44 -17q-26 0 -43.5 17z" />
    <glyph glyph-name="uni0457" unicode="&#x457;" horiz-adv-x="234" 
d="M22 591q-13 15 -13 40t13 40t34 15q22 0 34 -14.5t12 -40.5t-12 -40.5t-34 -14.5q-21 0 -34 15zM144 590.5q-12 14.5 -12 40.5t12 40.5t34 14.5q21 0 34 -15t13 -40t-13 -40t-34 -15q-22 0 -34 14.5zM161 496v-496h-89v496h89z" />
    <glyph glyph-name="uni0458" unicode="&#x458;" horiz-adv-x="210" 
d="M-3 -88q30 0 46.5 17.5t16.5 48.5v518h89v-524q0 -66 -38 -104t-103 -38h-59v82h48zM61.5 588q-17.5 17 -17.5 44t17 44t44 17t44 -16.5t17 -44.5q0 -27 -17 -44t-44 -17q-26 0 -43.5 17z" />
    <glyph glyph-name="uni0459" unicode="&#x459;" horiz-adv-x="686" 
d="M615 291q44 -41 44 -119v-12q0 -77 -44 -118.5t-127 -41.5h-178v414h-132l-5 -260q-2 -81 -33 -117.5t-98 -36.5h-29v82h18q28 0 42 19t15 60l5 335h306v-164h89q83 0 127 -41zM570 172q0 80 -91 80h-80v-172h80q91 0 91 80v12z" />
    <glyph glyph-name="uni045A" unicode="&#x45a;" horiz-adv-x="689" 
d="M147 496v-198h170v198h90v-192h84q84 0 127.5 -37t43.5 -108v-12q0 -72 -44 -109.5t-127 -37.5h-174v215h-170v-215h-90v496h90zM551 94.5q22 16.5 22 52.5v12q0 35 -22.5 51.5t-68.5 16.5h-75v-149h75q47 0 69 16.5z" />
    <glyph glyph-name="uni045B" unicode="&#x45b;" horiz-adv-x="469" 
d="M374 457q40 -41 40 -118v-339h-88v324q0 89 -84 89q-25 0 -48 -13t-37 -35v-365h-90v567h-63v77h63v52h90v-52h121v-77h-121v-109q43 40 106 40q71 0 111 -41z" />
    <glyph glyph-name="uni045C" unicode="&#x45c;" horiz-adv-x="453" 
d="M427 13v-13h-96l-126 208h-58v-208h-90v496h90v-208h57l123 208h94v-13l-137 -234zM362 704v-79l-268 -65v80z" />
    <glyph glyph-name="uni045D" unicode="&#x45d;" horiz-adv-x="461" 
d="M143 496v-334l177 334h84v-496h-86v335l-178 -335h-83v496h86zM96 704l268 -64v-80l-268 65v79z" />
    <glyph glyph-name="uni045E" unicode="&#x45e;" horiz-adv-x="464" 
d="M441 496v-13l-178 -546q-19 -59 -51.5 -83t-92.5 -24h-55v82h47q29 0 43 11t23 42l11 38l-165 480v13h94l118 -367l112 367h94zM134 595.5q-36 30.5 -36 82.5v14h78v-14q0 -17 15.5 -27.5t40.5 -10.5t40.5 10.5t15.5 27.5v14h78v-14q0 -52 -36.5 -82.5t-97.5 -30.5
q-62 0 -98 30.5z" />
    <glyph glyph-name="uni045F" unicode="&#x45f;" horiz-adv-x="469" 
d="M412 0h-137v-128h-80v128h-138v496h90v-414h175v414h90v-496z" />
    <glyph glyph-name="uni0462" unicode="&#x462;" horiz-adv-x="535" 
d="M512 191v-20q0 -171 -189 -171h-202v493h-115v81h115v89h92v-89h180v-81h-180v-131h110q189 0 189 -171zM419 191q0 45 -25 66.5t-77 21.5h-104v-197h104q52 0 77 22t25 67v20z" />
    <glyph glyph-name="uni0463" unicode="&#x463;" horiz-adv-x="526" 
d="M444 272.5q45 -39.5 45 -110.5v-12q0 -73 -43.5 -111.5t-127.5 -38.5h-185v416h-123v80h123v200h90v-200h161v-80h-161v-104h95q81 0 126 -39.5zM403 162q0 36 -23.5 55.5t-67.5 19.5h-89v-162h89q91 0 91 75v12z" />
    <glyph glyph-name="uni0472" unicode="&#x472;" horiz-adv-x="512" 
d="M400 616.5q53 -51.5 53 -137.5v-302q0 -87 -53 -138t-144 -51q-90 0 -143.5 51t-53.5 138v302q0 87 53.5 138t143.5 51q91 0 144 -51.5zM176.5 554q-28.5 -30 -28.5 -82v-102q28 6 54 6q19 0 53 -6t58 -6t51 6v102q0 52 -28.5 82t-79.5 30t-79.5 -30zM335.5 101.5
q28.5 29.5 28.5 82.5v103q-28 -6 -56 -6q-25 0 -59 6t-53 6q-16 0 -48 -6v-103q0 -53 28.5 -82.5t79.5 -29.5t79.5 29.5z" />
    <glyph glyph-name="uni0473" unicode="&#x473;" 
d="M352 464q46 -44 46 -123v-187q0 -78 -46 -122t-129 -44q-82 0 -128.5 44t-46.5 122v187q0 79 46 123t129 44t129 -44zM157.5 403.5q-24.5 -24.5 -24.5 -65.5v-52q23 5 44 5q20 0 50 -6q6 -1 19.5 -3t26.5 -2q14 0 40 4v54q0 42 -23.5 66t-65.5 24t-66.5 -24.5zM289 92.5
q24 24.5 24 64.5v53q-20 -5 -44 -5q-15 0 -29.5 2t-19.5 3q-25 5 -48 5q-20 0 -39 -4v-54q0 -40 24.5 -64.5t66.5 -24.5q41 0 65 24.5z" />
    <glyph glyph-name="uni0474" unicode="&#x474;" horiz-adv-x="513" 
d="M503 656v-84h-30q-18 0 -28 -10t-15 -33l-130 -529h-107l-166 642v14h98l121 -505l91 399q13 58 37.5 82t77.5 24h51z" />
    <glyph glyph-name="uni0475" unicode="&#x475;" horiz-adv-x="458" 
d="M448 496v-81h-23q-14 0 -21.5 -7t-13.5 -25l-116 -383h-106l-145 483v13h91l108 -379l86 301q13 43 34 60.5t68 17.5h38z" />
    <glyph glyph-name="uni0490" unicode="&#x490;" horiz-adv-x="386" 
d="M274 656v133h92v-218h-213v-571h-93v656h214z" />
    <glyph glyph-name="uni0491" unicode="&#x491;" horiz-adv-x="330" 
d="M214 496v127h89v-208h-156v-415h-90v496h157z" />
    <glyph glyph-name="uni0492" unicode="&#x492;" horiz-adv-x="419" 
d="M166 571v-221h153v-82h-153v-268h-93v268h-63v82h63v306h336v-85h-243z" />
    <glyph glyph-name="uni0493" unicode="&#x493;" horiz-adv-x="370" 
d="M162 415v-168h115v-76h-115v-171h-89v171h-63v76h63v249h276v-81h-187z" />
    <glyph glyph-name="uni0494" unicode="&#x494;" horiz-adv-x="475" 
d="M389.5 345q45.5 -44 45.5 -129v-216q0 -80 -46.5 -125t-128.5 -45h-39l1 85h30q44 0 67.5 24t23.5 68v203q0 93 -102 93q-37 0 -88 -9v-294h-93v656h335v-85h-242v-194q53 12 101 12q90 0 135.5 -44z" />
    <glyph glyph-name="uni0495" unicode="&#x495;" horiz-adv-x="456" 
d="M360 247q45 -34 45 -104v-155q0 -73 -40.5 -115.5t-111.5 -42.5h-48v82h37q36 0 55.5 21.5t19.5 60.5v130q0 77 -89 77q-35 0 -81 -8v-194h-90v496h319v-81h-229v-143q52 10 96 10q72 0 117 -34z" />
    <glyph glyph-name="uni0496" unicode="&#x496;" horiz-adv-x="753" 
d="M728 85v-218h-92v133h-39l-111 286h-68v-286h-92v286h-70l-126 -286h-95v14l139 315l-135 313v14h94l123 -286h70v286h92v-286h71l123 286h93v-14l-134 -313l95 -244h62z" />
    <glyph glyph-name="uni0497" unicode="&#x497;" horiz-adv-x="694" 
d="M674 81v-209h-90v128h-36l-112 208h-57v-208h-90v208h-56l-118 -208h-96v13l135 236l-129 234v13h94l115 -208h55v208h90v-208h57l115 208h93v-13l-129 -235l92 -167h67z" />
    <glyph glyph-name="uni0498" unicode="&#x498;" horiz-adv-x="487" 
d="M422 278q21 -34 21 -80v-37q0 -51 -24.5 -90.5t-69 -61t-102.5 -21.5q-97 0 -148.5 51t-51.5 148v35h93v-35q0 -59 26.5 -86.5t81.5 -27.5q46 0 74 27t28 71v26q0 43 -25 66t-72 23h-59v84h62q39 0 62 24t23 65v25q0 46 -26 72.5t-70 26.5q-50 0 -76 -29.5t-26 -85.5v-34
h-93v34q0 96 50 148t144 52q85 0 137.5 -48t52.5 -126v-38q0 -41 -19 -73.5t-53 -52.5q39 -18 60 -52zM295 9v-142h-90v142h90z" />
    <glyph glyph-name="uni0499" unicode="&#x499;" horiz-adv-x="422" 
d="M385 148v-20q0 -66 -46.5 -103t-129.5 -37q-87 0 -133.5 40.5t-46.5 115.5v20h87v-20q0 -37 23.5 -55.5t67.5 -18.5q43 0 66.5 17.5t23.5 49.5v15q0 30 -19.5 45.5t-55.5 15.5h-76v78h74q35 0 54 14.5t19 41.5v15q0 32 -22 48.5t-63 16.5t-65 -20t-24 -55v-19h-88v19
q0 72 46.5 113.5t128.5 41.5t129 -36.5t47 -99.5v-20q0 -34 -16.5 -59.5t-48.5 -39.5q68 -31 68 -104zM263 9v-142h-89v142h89z" />
    <glyph glyph-name="uni049A" unicode="&#x49a;" horiz-adv-x="505" 
d="M480 85v-218h-92v133h-40l-126 286h-69v-286h-93v656h93v-286h71l135 286h94v-14l-149 -313l108 -244h68z" />
    <glyph glyph-name="uni049B" unicode="&#x49b;" horiz-adv-x="465" 
d="M445 81v-209h-90v128h-35l-117 208h-56v-208h-90v496h90v-208h57l123 208h94v-13l-138 -235l94 -167h68z" />
    <glyph glyph-name="uni049C" unicode="&#x49c;" horiz-adv-x="536" 
d="M501 14v-14h-95l-124 286h-19v-150h-67v150h-43v-286h-93v656h93v-286h43v148h67v-148h19l122 286h93v-14l-133 -313z" />
    <glyph glyph-name="uni049D" unicode="&#x49d;" horiz-adv-x="488" 
d="M462 13v-13h-97l-101 208h-13v-135h-64v135h-40v-208h-90v496h90v-208h40v124h64v-124h13l98 208h93v-13l-112 -234z" />
    <glyph glyph-name="uni04A0" unicode="&#x4a0;" horiz-adv-x="598" 
d="M563 14v-14h-96l-136 286h-72v-286h-93v571h-156v85h249v-286h72l134 286h94v-14l-149 -313z" />
    <glyph glyph-name="uni04A1" unicode="&#x4a1;" horiz-adv-x="551" 
d="M532 13v-13h-96l-126 208h-58v-208h-90v415h-152v81h242v-208h57l123 208h94v-13l-137 -234z" />
    <glyph glyph-name="uni04A2" unicode="&#x4a2;" horiz-adv-x="537" 
d="M509 85v-218h-92v133h-62v286h-202v-286h-93v656h93v-286h202v286h92v-571h62z" />
    <glyph glyph-name="uni04A3" unicode="&#x4a3;" horiz-adv-x="498" 
d="M477 82v-210h-90v128h-62v207h-178v-207h-90v496h90v-206h178v206h89v-414h63z" />
    <glyph glyph-name="uni04A4" unicode="&#x4a4;" horiz-adv-x="618" 
d="M153 656v-286h184v286h271v-85h-179v-571h-92v286h-184v-286h-93v656h93z" />
    <glyph glyph-name="uni04A5" unicode="&#x4a5;" horiz-adv-x="580" 
d="M147 496v-206h163v206h260v-81h-170v-415h-90v207h-163v-207h-90v496h90z" />
    <glyph glyph-name="uni04AA" unicode="&#x4aa;" horiz-adv-x="502" 
d="M112 38.5q-53 50.5 -53 138.5v302q0 88 53 138.5t145 50.5q98 0 147.5 -52.5t49.5 -155.5v-60h-92v60q0 123 -106 123q-50 0 -77.5 -29t-27.5 -82v-289q0 -53 27.5 -81.5t77.5 -28.5q106 0 106 119v62h92v-62q0 -100 -50 -152t-147 -52q-92 0 -145 50.5zM303 9v-142h-90
v142h90z" />
    <glyph glyph-name="uni04AB" unicode="&#x4ab;" horiz-adv-x="442" 
d="M94.5 32q-46.5 44 -46.5 122v187q0 79 46 123t129 44q82 0 128 -44t46 -123v-42h-90v39q0 39 -22.5 62.5t-61.5 23.5t-62 -23.5t-23 -62.5v-180q0 -38 23 -61.5t62 -23.5t61.5 23t22.5 62v36h90v-40q0 -78 -46 -122t-128 -44t-128.5 44zM263 9v-142h-89v142h89z" />
    <glyph glyph-name="uni04AE" unicode="&#x4ae;" horiz-adv-x="454" 
d="M436 642l-163 -374v-268h-92v266l-163 376v14h90l119 -277l118 277h91v-14z" />
    <glyph glyph-name="uni04AF" unicode="&#x4af;" 
d="M423 483l-156 -501v-152h-89v155l-155 498v13h87l113 -374l112 374h88v-13z" />
    <glyph glyph-name="uni04B0" unicode="&#x4b0;" horiz-adv-x="454" 
d="M436 642l-142 -325h98v-85h-119v-232h-92v232h-119v85h97l-141 325v14h90l119 -277l118 277h91v-14z" />
    <glyph glyph-name="uni04B1" unicode="&#x4b1;" 
d="M423 483l-126 -404h92v-79h-122v-170h-89v170h-121v79h92l-126 404v13h87l113 -375l112 375h88v-13z" />
    <glyph glyph-name="uni04B2" unicode="&#x4b2;" horiz-adv-x="508" 
d="M483 85v-218h-92v133h-39l-108 243l-116 -243h-93v14l149 307l-147 321v14h93l115 -256l119 256h94v-14l-152 -321l108 -236h69z" />
    <glyph glyph-name="uni04B3" unicode="&#x4b3;" horiz-adv-x="451" 
d="M431 81v-209h-90v128h-35l-90 169l-97 -169h-92v13l135 235l-132 235v13h93l95 -170l96 170h93v-13l-134 -235l89 -167h69z" />
    <glyph glyph-name="uni04B6" unicode="&#x4b6;" horiz-adv-x="523" 
d="M492 85v-218h-91v133h-64v263q-53 -12 -104 -12q-89 0 -135 44t-46 129v232h93v-226q0 -94 103 -94q36 0 89 10v310h93v-571h62z" />
    <glyph glyph-name="uni04B7" unicode="&#x4b7;" horiz-adv-x="487" 
d="M455 81v-209h-89v128h-63v170q-46 -9 -91 -9q-79 0 -123 36.5t-44 101.5v197h88v-178q0 -37 24 -57t67 -20q33 0 79 10v245h90v-415h62z" />
    <glyph glyph-name="uni04B8" unicode="&#x4b8;" horiz-adv-x="481" 
d="M421 656v-656h-93v261q-27 -6 -56 -9v-138h-68v139q-74 8 -113 51.5t-39 119.5v232h93v-226q0 -35 15 -58.5t44 -31.5v172h68v-174l56 8v310h93z" />
    <glyph glyph-name="uni04B9" unicode="&#x4b9;" horiz-adv-x="453" 
d="M396 496v-496h-90v170q-17 -4 -53 -8v-103h-64v104q-69 7 -106.5 42.5t-37.5 95.5v195h88v-184q0 -31 13 -47t43 -21v161h64v-163q27 2 53 7v247h90z" />
    <glyph glyph-name="uni04BA" unicode="&#x4ba;" horiz-adv-x="490" 
d="M392 361q46 -44 46 -129v-232h-93v226q0 94 -103 94q-36 0 -89 -10v-310h-93v656h93v-263q53 12 104 12q89 0 135 -44z" />
    <glyph glyph-name="uni04BB" unicode="&#x4bb;" horiz-adv-x="459" 
d="M364 467q40 -41 40 -117v-350h-88v335q0 89 -84 89q-25 0 -48 -13t-37 -36v-375h-90v696h90v-229q44 41 106 41q71 0 111 -41z" />
    <glyph glyph-name="uni04C0" unicode="&#x4c0;" horiz-adv-x="220" 
d="M156 656v-656h-92v656h92z" />
    <glyph glyph-name="uni04C1" unicode="&#x4c1;" horiz-adv-x="744" 
d="M709 14v-14h-95l-124 286h-72v-286h-92v286h-71l-125 -286h-95v14l137 315l-133 313v14h94l122 -286h71v286h92v-286h72l122 286h93v-14l-133 -314zM274 755.5q-36 30.5 -36 82.5v14h78v-14q0 -17 15.5 -27.5t40.5 -10.5t40.5 10.5t15.5 27.5v14h78v-14
q0 -52 -36.5 -82.5t-97.5 -30.5q-62 0 -98 30.5z" />
    <glyph glyph-name="uni04C2" unicode="&#x4c2;" horiz-adv-x="684" 
d="M658 13v-13h-97l-118 208h-56v-208h-90v208h-57l-118 -208h-96v13l135 236l-129 234v13h94l115 -208h56v208h90v-208h56l115 208h93v-13l-129 -234zM245 595.5q-36 30.5 -36 82.5v14h78v-14q0 -17 15.5 -27.5t40.5 -10.5t40.5 10.5t15.5 27.5v14h78v-14
q0 -52 -36.5 -82.5t-97.5 -30.5q-62 0 -98 30.5z" />
    <glyph glyph-name="uni04CF" unicode="&#x4cf;" horiz-adv-x="210" 
d="M149 696v-696h-89v696h89z" />
    <glyph glyph-name="uni04D0" unicode="&#x4d0;" horiz-adv-x="499" 
d="M473 14v-14h-94l-36 146h-186l-36 -146h-94v14l169 642h109zM322 229l-72 294l-72 -294h144zM152 755.5q-36 30.5 -36 82.5v14h78v-14q0 -17 15.5 -27.5t40.5 -10.5t40.5 10.5t15.5 27.5v14h78v-14q0 -52 -36.5 -82.5t-97.5 -30.5q-62 0 -98 30.5z" />
    <glyph glyph-name="uni04D1" unicode="&#x4d1;" horiz-adv-x="462" 
d="M457 82v-82h-47q-66 0 -95 40q-43 -52 -126 -52q-69 0 -109.5 38t-40.5 103q0 62 38.5 98t118.5 50l99 17v48q0 40 -20.5 61.5t-59.5 21.5q-42 0 -63 -22.5t-21 -64.5v-10h-89v10q0 83 44 126.5t126 43.5q84 0 127.5 -43.5t43.5 -127.5v-207q0 -48 43 -48h31zM255.5 81.5
q26.5 16.5 39.5 44.5v94l-79 -13q-89 -15 -89 -76q0 -31 19 -48.5t52 -17.5q31 0 57.5 16.5zM123 595.5q-36 30.5 -36 82.5v14h78v-14q0 -17 15.5 -27.5t40.5 -10.5t40.5 10.5t15.5 27.5v14h78v-14q0 -52 -36.5 -82.5t-97.5 -30.5q-62 0 -98 30.5z" />
    <glyph glyph-name="uni04D2" unicode="&#x4d2;" horiz-adv-x="499" 
d="M473 14v-14h-94l-36 146h-186l-36 -146h-94v14l169 642h109zM322 229l-72 294l-72 -294h144zM122 752.5q-15 14.5 -15 39.5q0 24 15 39t39 15t39 -14.5t15 -39.5t-15 -39.5t-39 -14.5t-39 14.5zM299 752.5q-15 14.5 -15 39.5q0 24 15 39t39 15t39.5 -15t15.5 -39
t-15.5 -39t-39.5 -15t-39 14.5z" />
    <glyph glyph-name="uni04D3" unicode="&#x4d3;" horiz-adv-x="462" 
d="M457 82v-82h-47q-66 0 -95 40q-43 -52 -126 -52q-69 0 -109.5 38t-40.5 103q0 62 38.5 98t118.5 50l99 17v48q0 40 -20.5 61.5t-59.5 21.5q-42 0 -63 -22.5t-21 -64.5v-10h-89v10q0 83 44 126.5t126 43.5q84 0 127.5 -43.5t43.5 -127.5v-207q0 -48 43 -48h31zM255.5 81.5
q26.5 16.5 39.5 44.5v94l-79 -13q-89 -15 -89 -76q0 -31 19 -48.5t52 -17.5q31 0 57.5 16.5zM93 592.5q-15 14.5 -15 39.5q0 24 15 39t39 15t39 -14.5t15 -39.5t-15 -39.5t-39 -14.5t-39 14.5zM270 592.5q-15 14.5 -15 39.5q0 24 15 39t39 15t39.5 -15t15.5 -39t-15.5 -39
t-39.5 -15t-39 14.5z" />
    <glyph glyph-name="uni04D4" unicode="&#x4d4;" horiz-adv-x="657" 
d="M374 571l26 -201h208v-84h-198l26 -201h192v-85h-274l-18 146h-183l-37 -146h-89v14l167 642h434v-85h-254zM283 571h-23l-86 -342h152z" />
    <glyph glyph-name="uni04D5" unicode="&#x4d5;" horiz-adv-x="695" 
d="M390 223v-68q0 -38 23.5 -60.5t63.5 -22.5q37 0 59 23t22 63h89q-2 -81 -47 -125.5t-123 -44.5q-97 0 -147 59q-23 -29 -57.5 -44t-77.5 -15q-73 0 -114.5 37.5t-41.5 102.5q0 62 38.5 98t118.5 49l97 16v52q0 39 -21 60.5t-59 21.5q-41 0 -62 -22.5t-21 -64.5v-10h-88
v10q0 83 42.5 126.5t122.5 43.5q97 0 138 -63q23 30 58.5 46.5t78.5 16.5q73 0 119 -46.5t46 -120.5v-118h-257zM413 401q-23 -24 -23 -62v-43h168v43q0 38 -23 62t-61 24t-61 -24zM258 82q25 17 37 47q-2 20 -2 31v57l-79 -12q-87 -13 -87 -74q0 -32 19 -49t54 -17
q33 0 58 17z" />
    <glyph glyph-name="uni04D6" unicode="&#x4d6;" horiz-adv-x="429" 
d="M400 656v-85h-247v-201h232v-84h-232v-201h247v-85h-340v656h340zM132 755.5q-36 30.5 -36 82.5v14h78v-14q0 -17 15.5 -27.5t40.5 -10.5t40.5 10.5t15.5 27.5v14h78v-14q0 -52 -36.5 -82.5t-97.5 -30.5q-62 0 -98 30.5z" />
    <glyph glyph-name="uni04D7" unicode="&#x4d7;" 
d="M137 219v-67q0 -37 23.5 -58.5t62.5 -21.5q40 0 63 22.5t23 63.5h89q-2 -82 -48 -126t-127 -44q-82 0 -128.5 44t-46.5 122v187q0 79 46.5 123t128.5 44t128.5 -44t46.5 -123v-122h-261zM160.5 402.5q-23.5 -22.5 -23.5 -59.5v-50h172v50q0 37 -23.5 59.5t-62.5 22.5
t-62.5 -22.5zM125 595.5q-36 30.5 -36 82.5v14h78v-14q0 -17 15.5 -27.5t40.5 -10.5t40.5 10.5t15.5 27.5v14h78v-14q0 -52 -36.5 -82.5t-97.5 -30.5q-62 0 -98 30.5z" />
    <glyph glyph-name="uni04D8" unicode="&#x4d8;" horiz-adv-x="512" 
d="M399.5 616.5q53.5 -51.5 53.5 -137.5v-302q0 -86 -53 -137.5t-144 -51.5t-144 52t-53 142v187h305v101q0 54 -28 84t-80 30q-108 0 -108 -124h-89q0 101 51 154.5t146 53.5q90 0 143.5 -51.5zM336 102q28 29 28 83v100h-216v-100q0 -53 28 -82.5t80 -29.5t80 29z" />
    <glyph glyph-name="uni04D9" unicode="&#x4d9;" 
d="M351.5 464q46.5 -44 46.5 -122v-187q0 -79 -46.5 -123t-128.5 -44t-128.5 44t-46.5 123v122h261v67q0 37 -23.5 59t-62.5 22q-40 0 -63 -23t-23 -64h-89q2 82 48 126t127 44q82 0 128.5 -44zM285.5 94q23.5 22 23.5 60v49h-172v-49q0 -38 23.5 -60t62.5 -22t62.5 22z" />
    <glyph glyph-name="uni04DA" unicode="&#x4da;" horiz-adv-x="512" 
d="M399.5 616.5q53.5 -51.5 53.5 -137.5v-302q0 -86 -53 -137.5t-144 -51.5t-144 52t-53 142v187h305v101q0 54 -28 84t-80 30q-108 0 -108 -124h-89q0 101 51 154.5t146 53.5q90 0 143.5 -51.5zM336 102q28 29 28 83v100h-216v-100q0 -53 28 -82.5t80 -29.5t80 29z
M128 752.5q-15 14.5 -15 39.5q0 24 15 39t39 15t39 -14.5t15 -39.5t-15 -39.5t-39 -14.5t-39 14.5zM305 752.5q-15 14.5 -15 39.5q0 24 15 39t39 15t39.5 -15t15.5 -39t-15.5 -39t-39.5 -15t-39 14.5z" />
    <glyph glyph-name="uni04DB" unicode="&#x4db;" 
d="M351.5 464q46.5 -44 46.5 -122v-187q0 -79 -46.5 -123t-128.5 -44t-128.5 44t-46.5 123v122h261v67q0 37 -23.5 59t-62.5 22q-40 0 -63 -23t-23 -64h-89q2 82 48 126t127 44q82 0 128.5 -44zM285.5 94q23.5 22 23.5 60v49h-172v-49q0 -38 23.5 -60t62.5 -22t62.5 22z
M95 592.5q-15 14.5 -15 39.5q0 24 15 39t39 15t39 -14.5t15 -39.5t-15 -39.5t-39 -14.5t-39 14.5zM272 592.5q-15 14.5 -15 39.5q0 24 15 39t39 15t39.5 -15t15.5 -39t-15.5 -39t-39.5 -15t-39 14.5z" />
    <glyph glyph-name="uni04DC" unicode="&#x4dc;" horiz-adv-x="744" 
d="M709 14v-14h-95l-124 286h-72v-286h-92v286h-71l-125 -286h-95v14l137 315l-133 313v14h94l122 -286h71v286h92v-286h72l122 286h93v-14l-133 -314zM244 752.5q-15 14.5 -15 39.5q0 24 15 39t39 15t39 -14.5t15 -39.5t-15 -39.5t-39 -14.5t-39 14.5zM421 752.5
q-15 14.5 -15 39.5q0 24 15 39t39 15t39.5 -15t15.5 -39t-15.5 -39t-39.5 -15t-39 14.5z" />
    <glyph glyph-name="uni04DD" unicode="&#x4dd;" horiz-adv-x="684" 
d="M658 13v-13h-97l-118 208h-56v-208h-90v208h-57l-118 -208h-96v13l135 236l-129 234v13h94l115 -208h56v208h90v-208h56l115 208h93v-13l-129 -234zM215 592.5q-15 14.5 -15 39.5q0 24 15 39t39 15t39 -14.5t15 -39.5t-15 -39.5t-39 -14.5t-39 14.5zM392 592.5
q-15 14.5 -15 39.5q0 24 15 39t39 15t39.5 -15t15.5 -39t-15.5 -39t-39.5 -15t-39 14.5z" />
    <glyph glyph-name="uni04DE" unicode="&#x4de;" horiz-adv-x="487" 
d="M422 278q21 -34 21 -80v-37q0 -51 -24.5 -90.5t-69 -61t-102.5 -21.5q-97 0 -148.5 51t-51.5 148v35h93v-35q0 -59 26.5 -86.5t81.5 -27.5q46 0 74 27t28 71v26q0 43 -25 66t-72 23h-59v84h62q39 0 62 24t23 65v25q0 46 -26 72.5t-70 26.5q-50 0 -76 -29.5t-26 -85.5v-34
h-93v34q0 96 50 148t144 52q85 0 137.5 -48t52.5 -126v-38q0 -41 -19 -73.5t-53 -52.5q39 -18 60 -52zM122 752.5q-15 14.5 -15 39.5q0 24 15 39t39 15t39 -14.5t15 -39.5t-15 -39.5t-39 -14.5t-39 14.5zM299 752.5q-15 14.5 -15 39.5q0 24 15 39t39 15t39.5 -15t15.5 -39
t-15.5 -39t-39.5 -15t-39 14.5z" />
    <glyph glyph-name="uni04DF" unicode="&#x4df;" horiz-adv-x="422" 
d="M385 148v-20q0 -66 -46.5 -103t-129.5 -37q-87 0 -133.5 40.5t-46.5 115.5v20h87v-20q0 -37 23.5 -55.5t67.5 -18.5q43 0 66.5 17.5t23.5 49.5v15q0 30 -19.5 45.5t-55.5 15.5h-76v78h74q35 0 54 14.5t19 41.5v15q0 32 -22 48.5t-63 16.5t-65 -20t-24 -55v-19h-88v19
q0 72 46.5 113.5t128.5 41.5t129 -36.5t47 -99.5v-20q0 -34 -16.5 -59.5t-48.5 -39.5q68 -31 68 -104zM90 591.5q-15 14.5 -15 39.5q0 24 15 39t39 15t39 -14.5t15 -39.5t-15 -39.5t-39 -14.5t-39 14.5zM267 591.5q-15 14.5 -15 39.5q0 24 15 39t39 15t39.5 -15t15.5 -39
t-15.5 -39t-39.5 -15t-39 14.5z" />
    <glyph glyph-name="uni04E2" unicode="&#x4e2;" horiz-adv-x="504" 
d="M151 656v-462l199 462h94v-656h-91v463l-197 -463h-96v656h91zM388 831v-78h-268v78h268z" />
    <glyph glyph-name="uni04E3" unicode="&#x4e3;" horiz-adv-x="461" 
d="M143 496v-334l177 334h84v-496h-86v335l-178 -335h-83v496h86zM364 671v-78h-268v78h268z" />
    <glyph glyph-name="uni04E4" unicode="&#x4e4;" horiz-adv-x="504" 
d="M151 656v-462l199 462h94v-656h-91v463l-197 -463h-96v656h91zM126 752.5q-15 14.5 -15 39.5q0 24 15 39t39 15t39 -14.5t15 -39.5t-15 -39.5t-39 -14.5t-39 14.5zM303 752.5q-15 14.5 -15 39.5q0 24 15 39t39 15t39.5 -15t15.5 -39t-15.5 -39t-39.5 -15t-39 14.5z" />
    <glyph glyph-name="uni04E5" unicode="&#x4e5;" horiz-adv-x="461" 
d="M143 496v-334l177 334h84v-496h-86v335l-178 -335h-83v496h86zM102 592.5q-15 14.5 -15 39.5q0 24 15 39t39 15t39 -14.5t15 -39.5t-15 -39.5t-39 -14.5t-39 14.5zM279 592.5q-15 14.5 -15 39.5q0 24 15 39t39 15t39.5 -15t15.5 -39t-15.5 -39t-39.5 -15t-39 14.5z" />
    <glyph glyph-name="uni04E6" unicode="&#x4e6;" horiz-adv-x="512" 
d="M112 38.5q-53 50.5 -53 138.5v302q0 87 53 138t144 51t144 -51t53 -138v-302q0 -87 -53 -138t-144 -51t-144 50.5zM333.5 102q27.5 29 27.5 81v289q0 53 -27.5 82t-77.5 29t-77.5 -29t-27.5 -82v-289q0 -52 27.5 -81t77.5 -29t77.5 29zM128 752.5q-15 14.5 -15 39.5
q0 24 15 39t39 15t39 -14.5t15 -39.5t-15 -39.5t-39 -14.5t-39 14.5zM305 752.5q-15 14.5 -15 39.5q0 24 15 39t39 15t39.5 -15t15.5 -39t-15.5 -39t-39.5 -15t-39 14.5z" />
    <glyph glyph-name="uni04E7" unicode="&#x4e7;" 
d="M95.5 31q-47.5 43 -47.5 123v187q0 81 47.5 124t127.5 43t127.5 -43t47.5 -124v-187q0 -80 -47.5 -123t-127.5 -43t-127.5 43zM284.5 95.5q23.5 22.5 23.5 62.5v180q0 41 -23.5 63.5t-61.5 22.5t-61.5 -22.5t-23.5 -63.5v-180q0 -40 23.5 -62.5t61.5 -22.5t61.5 22.5z
M95 592.5q-15 14.5 -15 39.5q0 24 15 39t39 15t39 -14.5t15 -39.5t-15 -39.5t-39 -14.5t-39 14.5zM272 592.5q-15 14.5 -15 39.5q0 24 15 39t39 15t39.5 -15t15.5 -39t-15.5 -39t-39.5 -15t-39 14.5z" />
    <glyph glyph-name="uni04E8" unicode="&#x4e8;" horiz-adv-x="512" 
d="M399.5 617q53.5 -51 53.5 -138v-302q0 -87 -53.5 -138t-143.5 -51q-91 0 -144 50.5t-53 138.5v302q0 87 53.5 138t143.5 51t143.5 -51zM177 554q-29 -30 -29 -82v-102h216v102q0 53 -28.5 82.5t-79.5 29.5q-50 0 -79 -30zM335.5 101.5q28.5 29.5 28.5 82.5v102h-216v-102
q0 -53 28.5 -82.5t79.5 -29.5t79.5 29.5z" />
    <glyph glyph-name="uni04E9" unicode="&#x4e9;" 
d="M352 464q46 -44 46 -123v-187q0 -78 -46 -122t-129 -44q-82 0 -128.5 44t-46.5 122v187q0 79 46 123t129 44t129 -44zM157.5 403.5q-24.5 -24.5 -24.5 -65.5v-51h180v51q0 42 -23.5 66t-65.5 24t-66.5 -24.5zM289 92.5q24 24.5 24 64.5v54h-180v-54q0 -40 24.5 -64.5
t66.5 -24.5q41 0 65 24.5z" />
    <glyph glyph-name="uni04EE" unicode="&#x4ee;" horiz-adv-x="459" 
d="M454 656v-14l-175 -535q-19 -57 -51.5 -82t-89.5 -25h-69v85h63q26 0 39.5 11.5t23.5 41.5v1l-172 503v14h92l127 -395l123 395h89zM369 831v-78h-268v78h268z" />
    <glyph glyph-name="uni04EF" unicode="&#x4ef;" horiz-adv-x="464" 
d="M441 496v-13l-178 -546q-19 -59 -51.5 -83t-92.5 -24h-55v82h47q29 0 43 11t23 42l11 38l-165 480v13h94l118 -367l112 367h94zM366 671v-78h-268v78h268z" />
    <glyph glyph-name="uni04F0" unicode="&#x4f0;" horiz-adv-x="459" 
d="M454 656v-14l-175 -535q-19 -57 -51.5 -82t-89.5 -25h-69v85h63q26 0 39.5 11.5t23.5 41.5v1l-172 503v14h92l127 -395l123 395h89zM107 752.5q-15 14.5 -15 39.5q0 24 15 39t39 15t39 -14.5t15 -39.5t-15 -39.5t-39 -14.5t-39 14.5zM284 752.5q-15 14.5 -15 39.5
q0 24 15 39t39 15t39.5 -15t15.5 -39t-15.5 -39t-39.5 -15t-39 14.5z" />
    <glyph glyph-name="uni04F1" unicode="&#x4f1;" horiz-adv-x="464" 
d="M441 496v-13l-178 -546q-19 -59 -51.5 -83t-92.5 -24h-55v82h47q29 0 43 11t23 42l11 38l-165 480v13h94l118 -367l112 367h94zM104 592.5q-15 14.5 -15 39.5q0 24 15 39t39 15t39 -14.5t15 -39.5t-15 -39.5t-39 -14.5t-39 14.5zM281 592.5q-15 14.5 -15 39.5q0 24 15 39
t39 15t39.5 -15t15.5 -39t-15.5 -39t-39.5 -15t-39 14.5z" />
    <glyph glyph-name="uni04F2" unicode="&#x4f2;" horiz-adv-x="459" 
d="M454 656v-14l-175 -535q-19 -57 -51.5 -82t-89.5 -25h-69v85h63q26 0 39.5 11.5t23.5 41.5v1l-172 503v14h92l127 -395l123 395h89zM262 865v-82l-185 -63v81zM461 865v-82l-185 -63v81z" />
    <glyph glyph-name="uni04F3" unicode="&#x4f3;" horiz-adv-x="464" 
d="M441 496v-13l-178 -546q-19 -59 -51.5 -83t-92.5 -24h-55v82h47q29 0 43 11t23 42l11 38l-165 480v13h94l118 -367l112 367h94zM259 705v-82l-185 -63v81zM458 705v-82l-185 -63v81z" />
    <glyph glyph-name="uni04F4" unicode="&#x4f4;" horiz-adv-x="490" 
d="M430 656v-656h-93v263q-53 -12 -104 -12q-89 0 -135 44t-46 129v232h93v-226q0 -94 103 -94q36 0 89 10v310h93zM117 752.5q-15 14.5 -15 39.5q0 24 15 39t39 15t39 -14.5t15 -39.5t-15 -39.5t-39 -14.5t-39 14.5zM294 752.5q-15 14.5 -15 39.5q0 24 15 39t39 15
t39.5 -15t15.5 -39t-15.5 -39t-39.5 -15t-39 14.5z" />
    <glyph glyph-name="uni04F5" unicode="&#x4f5;" horiz-adv-x="450" 
d="M393 496v-496h-90v170q-46 -9 -91 -9q-79 0 -123 36.5t-44 101.5v197h88v-178q0 -37 24 -57t67 -20q33 0 79 10v245h90zM93 592.5q-15 14.5 -15 39.5q0 24 15 39t39 15t39 -14.5t15 -39.5t-15 -39.5t-39 -14.5t-39 14.5zM270 592.5q-15 14.5 -15 39.5q0 24 15 39t39 15
t39.5 -15t15.5 -39t-15.5 -39t-39.5 -15t-39 14.5z" />
    <glyph glyph-name="uni04F8" unicode="&#x4f8;" horiz-adv-x="670" 
d="M155 656v-261h108q92 0 140 -46t48 -136v-31q0 -89 -48 -135.5t-140 -46.5h-200v656h92zM607 656v-656h-92v656h92zM358 183v31q0 97 -102 97h-101v-227h101q102 0 102 99zM202 752.5q-15 14.5 -15 39.5q0 24 15 39t39 15t39 -14.5t15 -39.5t-15 -39.5t-39 -14.5
t-39 14.5zM379 752.5q-15 14.5 -15 39.5q0 24 15 39t39 15t39.5 -15t15.5 -39t-15.5 -39t-39.5 -15t-39 14.5z" />
    <glyph glyph-name="uni04F9" unicode="&#x4f9;" horiz-adv-x="611" 
d="M365 290.5q44 -41.5 44 -118.5v-12q0 -77 -44.5 -118.5t-126.5 -41.5h-179v496h90v-164h89q83 0 127 -41.5zM552 496v-496h-90v496h90zM320 172q0 80 -91 80h-80v-172h80q91 0 91 80v12zM178 592.5q-15 14.5 -15 39.5q0 24 15 39t39 15t39 -14.5t15 -39.5t-15 -39.5
t-39 -14.5t-39 14.5zM355 592.5q-15 14.5 -15 39.5q0 24 15 39t39 15t39.5 -15t15.5 -39t-15.5 -39t-39.5 -15t-39 14.5z" />
    <glyph glyph-name="uni1E62" unicode="&#x1e62;" horiz-adv-x="458" 
d="M87.5 37.5q-48.5 49.5 -48.5 141.5v30h90v-30q0 -52 25 -79.5t73 -27.5q47 0 73.5 24t26.5 67v11q0 37 -20.5 63t-69.5 48l-53 24q-70 31 -103 72t-33 99v19q0 76 50 122.5t135 46.5t133 -46.5t48 -130.5v-30h-91v30q0 46 -22 69.5t-69 23.5q-44 0 -68.5 -21.5
t-24.5 -60.5v-11q0 -34 18 -57.5t66 -44.5l55 -24q74 -32 108 -75.5t34 -105.5v-19q0 -80 -52 -128.5t-141 -48.5q-91 0 -139.5 49.5zM185.5 -180q-17.5 17 -17.5 44t17.5 44.5t43.5 17.5q27 0 44 -17.5t17 -44.5q0 -28 -17 -44.5t-44 -16.5q-26 0 -43.5 17z" />
    <glyph glyph-name="uni1E63" unicode="&#x1e63;" horiz-adv-x="427" 
d="M88 27.5q-44 39.5 -44 113.5v18h88v-18q0 -34 21.5 -53.5t59.5 -19.5q37 0 59 17t22 45v8q0 26 -17.5 42.5t-55.5 27.5l-49 13q-60 16 -90 50.5t-30 84.5v15q0 62 44.5 99.5t120.5 37.5q78 0 121 -39t43 -110v-18h-87v18q0 32 -21.5 50.5t-57.5 18.5q-34 0 -54.5 -15
t-20.5 -41v-9q0 -24 15 -39.5t47 -24.5l58 -16q64 -18 94 -50.5t30 -89.5v-14q0 -65 -45.5 -103t-124.5 -38q-82 0 -126 39.5zM168.5 -180q-17.5 17 -17.5 44t17.5 44.5t43.5 17.5q27 0 44 -17.5t17 -44.5q0 -28 -17 -44.5t-44 -16.5q-26 0 -43.5 17z" />
    <glyph glyph-name="Wgrave" unicode="&#x1e80;" horiz-adv-x="782" 
d="M756 656v-14l-151 -642h-107l-107 484l-106 -484h-107l-151 642v14h92l113 -506l114 506h90l115 -505l113 505h92zM257 864l268 -64v-80l-268 65v79z" />
    <glyph glyph-name="wgrave" unicode="&#x1e81;" horiz-adv-x="678" 
d="M655 496v-13l-125 -483h-104l-87 350l-87 -350h-104l-125 483v13h85l93 -381l92 381h92l92 -381l93 381h85zM205 704l268 -64v-80l-268 65v79z" />
    <glyph glyph-name="Wacute" unicode="&#x1e82;" horiz-adv-x="782" 
d="M756 656v-14l-151 -642h-107l-107 484l-106 -484h-107l-151 642v14h92l113 -506l114 506h90l115 -505l113 505h92zM525 864v-79l-268 -65v80z" />
    <glyph glyph-name="wacute" unicode="&#x1e83;" horiz-adv-x="678" 
d="M655 496v-13l-125 -483h-104l-87 350l-87 -350h-104l-125 483v13h85l93 -381l92 381h92l92 -381l93 381h85zM473 704v-79l-268 -65v80z" />
    <glyph glyph-name="Wdieresis" unicode="&#x1e84;" horiz-adv-x="782" 
d="M756 656v-14l-151 -642h-107l-107 484l-106 -484h-107l-151 642v14h92l113 -506l114 506h90l115 -505l113 505h92zM263 752.5q-15 14.5 -15 39.5q0 24 15 39t39 15t39 -14.5t15 -39.5t-15 -39.5t-39 -14.5t-39 14.5zM440 752.5q-15 14.5 -15 39.5q0 24 15 39t39 15
t39.5 -15t15.5 -39t-15.5 -39t-39.5 -15t-39 14.5z" />
    <glyph glyph-name="wdieresis" unicode="&#x1e85;" horiz-adv-x="678" 
d="M655 496v-13l-125 -483h-104l-87 350l-87 -350h-104l-125 483v13h85l93 -381l92 381h92l92 -381l93 381h85zM211 592.5q-15 14.5 -15 39.5q0 24 15 39t39 15t39 -14.5t15 -39.5t-15 -39.5t-39 -14.5t-39 14.5zM388 592.5q-15 14.5 -15 39.5q0 24 15 39t39 15t39.5 -15
t15.5 -39t-15.5 -39t-39.5 -15t-39 14.5z" />
    <glyph glyph-name="uni1E9E" unicode="&#x1e9e;" horiz-adv-x="518" 
d="M451.5 310.5q34.5 -40.5 34.5 -105.5v-35q0 -81 -48 -125.5t-135 -44.5h-45v85h38q46 0 72 22.5t26 62.5v35q0 41 -25.5 62.5t-72.5 21.5h-38v72l116 210h-162q-59 0 -59 -61v-510h-93v511q0 71 35.5 108t115.5 37h260v-85l-117 -208q63 -12 97.5 -52.5z" />
    <glyph glyph-name="uni1EB8" unicode="&#x1eb8;" horiz-adv-x="429" 
d="M400 656v-85h-247v-201h232v-84h-232v-201h247v-85h-340v656h340zM186.5 -180q-17.5 17 -17.5 44t17.5 44.5t43.5 17.5q27 0 44 -17.5t17 -44.5q0 -28 -17 -44.5t-44 -16.5q-26 0 -43.5 17z" />
    <glyph glyph-name="uni1EB9" unicode="&#x1eb9;" 
d="M137 219v-67q0 -37 23.5 -58.5t62.5 -21.5q40 0 63 22.5t23 63.5h89q-2 -82 -48 -126t-127 -44q-82 0 -128.5 44t-46.5 122v187q0 79 46.5 123t128.5 44t128.5 -44t46.5 -123v-122h-261zM160.5 402.5q-23.5 -22.5 -23.5 -59.5v-50h172v50q0 37 -23.5 59.5t-62.5 22.5
t-62.5 -22.5zM179.5 -180q-17.5 17 -17.5 44t17.5 44.5t43.5 17.5q27 0 44 -17.5t17 -44.5q0 -28 -17 -44.5t-44 -16.5q-26 0 -43.5 17z" />
    <glyph glyph-name="uni1EBC" unicode="&#x1ebc;" horiz-adv-x="429" 
d="M400 656v-85h-247v-201h232v-84h-232v-201h247v-85h-340v656h340zM232 753q-16 5 -32 9.5t-31 4.5q-37 0 -73 -21v77q36 23 73 23q24 0 64 -14q21 -7 35.5 -10.5t31.5 -3.5q34 0 64 15v-78q-29 -16 -64 -16q-26 0 -68 14z" />
    <glyph glyph-name="uni1EBD" unicode="&#x1ebd;" 
d="M137 219v-67q0 -37 23.5 -58.5t62.5 -21.5q40 0 63 22.5t23 63.5h89q-2 -82 -48 -126t-127 -44q-82 0 -128.5 44t-46.5 122v187q0 79 46.5 123t128.5 44t128.5 -44t46.5 -123v-122h-261zM160.5 402.5q-23.5 -22.5 -23.5 -59.5v-50h172v50q0 37 -23.5 59.5t-62.5 22.5
t-62.5 -22.5zM225 593q-16 5 -32 9.5t-31 4.5q-37 0 -73 -21v77q36 23 73 23q24 0 64 -14q21 -7 35.5 -10.5t31.5 -3.5q34 0 64 15v-78q-29 -16 -64 -16q-26 0 -68 14z" />
    <glyph glyph-name="uni1ECA" unicode="&#x1eca;" horiz-adv-x="220" 
d="M156 656v-656h-92v656h92zM66.5 -180q-17.5 17 -17.5 44t17.5 44.5t43.5 17.5q27 0 44 -17.5t17 -44.5q0 -28 -17 -44.5t-44 -16.5q-26 0 -43.5 17z" />
    <glyph glyph-name="uni1ECB" unicode="&#x1ecb;" horiz-adv-x="210" 
d="M149 496v-496h-89v496h89zM61.5 588q-17.5 17 -17.5 44t17 44t44 17t44 -16.5t17 -44.5q0 -27 -17 -44t-44 -17q-26 0 -43.5 17zM61.5 -180q-17.5 17 -17.5 44t17.5 44.5t43.5 17.5q27 0 44 -17.5t17 -44.5q0 -28 -17 -44.5t-44 -16.5q-26 0 -43.5 17z" />
    <glyph glyph-name="uni1ECC" unicode="&#x1ecc;" horiz-adv-x="512" 
d="M112 38.5q-53 50.5 -53 138.5v302q0 87 53 138t144 51t144 -51t53 -138v-302q0 -87 -53 -138t-144 -51t-144 50.5zM333.5 102q27.5 29 27.5 81v289q0 53 -27.5 82t-77.5 29t-77.5 -29t-27.5 -82v-289q0 -52 27.5 -81t77.5 -29t77.5 29zM212.5 -180q-17.5 17 -17.5 44
t17.5 44.5t43.5 17.5q27 0 44 -17.5t17 -44.5q0 -28 -17 -44.5t-44 -16.5q-26 0 -43.5 17z" />
    <glyph glyph-name="uni1ECD" unicode="&#x1ecd;" 
d="M95.5 31q-47.5 43 -47.5 123v187q0 81 47.5 124t127.5 43t127.5 -43t47.5 -124v-187q0 -80 -47.5 -123t-127.5 -43t-127.5 43zM284.5 95.5q23.5 22.5 23.5 62.5v180q0 41 -23.5 63.5t-61.5 22.5t-61.5 -22.5t-23.5 -63.5v-180q0 -40 23.5 -62.5t61.5 -22.5t61.5 22.5z
M179.5 -180q-17.5 17 -17.5 44t17.5 44.5t43.5 17.5q27 0 44 -17.5t17 -44.5q0 -28 -17 -44.5t-44 -16.5q-26 0 -43.5 17z" />
    <glyph glyph-name="uni1EE4" unicode="&#x1ee4;" horiz-adv-x="495" 
d="M108 35q-48 47 -48 137v484h93v-483q0 -100 95 -100q94 0 94 100v483h93v-484q0 -90 -48 -137t-139 -47q-92 0 -140 47zM204.5 -180q-17.5 17 -17.5 44t17.5 44.5t43.5 17.5q27 0 44 -17.5t17 -44.5q0 -28 -17 -44.5t-44 -16.5q-26 0 -43.5 17z" />
    <glyph glyph-name="uni1EE5" unicode="&#x1ee5;" horiz-adv-x="459" 
d="M402 496v-496h-78l-4 36q-21 -23 -51 -35.5t-63 -12.5q-73 0 -112 41.5t-39 117.5v349h88v-335q0 -89 84 -89q26 0 48.5 13t36.5 35v376h90zM203.5 -180q-17.5 17 -17.5 44t17.5 44.5t43.5 17.5q27 0 44 -17.5t17 -44.5q0 -28 -17 -44.5t-44 -16.5q-26 0 -43.5 17z" />
    <glyph glyph-name="Ygrave" unicode="&#x1ef2;" horiz-adv-x="454" 
d="M436 642l-163 -374v-268h-92v266l-163 376v14h90l119 -277l118 277h91v-14zM93 864l268 -64v-80l-268 65v79z" />
    <glyph glyph-name="ygrave" unicode="&#x1ef3;" horiz-adv-x="464" 
d="M441 496v-13l-178 -546q-19 -59 -51.5 -83t-92.5 -24h-55v82h47q29 0 43 11t23 42l11 38l-165 480v13h94l118 -367l112 367h94zM98 704l268 -64v-80l-268 65v79z" />
    <glyph glyph-name="uni1EF8" unicode="&#x1ef8;" horiz-adv-x="454" 
d="M436 642l-163 -374v-268h-92v266l-163 376v14h90l119 -277l118 277h91v-14zM229 753q-16 5 -32 9.5t-31 4.5q-37 0 -73 -21v77q36 23 73 23q24 0 64 -14q21 -7 35.5 -10.5t31.5 -3.5q34 0 64 15v-78q-29 -16 -64 -16q-26 0 -68 14z" />
    <glyph glyph-name="uni1EF9" unicode="&#x1ef9;" horiz-adv-x="464" 
d="M441 496v-13l-178 -546q-19 -59 -51.5 -83t-92.5 -24h-55v82h47q29 0 43 11t23 42l11 38l-165 480v13h94l118 -367l112 367h94zM234 593q-16 5 -32 9.5t-31 4.5q-37 0 -73 -21v77q36 23 73 23q24 0 64 -14q21 -7 35.5 -10.5t31.5 -3.5q34 0 64 15v-78q-29 -16 -64 -16
q-26 0 -68 14z" />
    <glyph glyph-name="uni2009" unicode="&#x2009;" horiz-adv-x="115" 
 />
    <glyph glyph-name="uni2010" unicode="&#x2010;" horiz-adv-x="334" 
d="M274 318v-82h-215v82h215z" />
    <glyph glyph-name="uni2011" unicode="&#x2011;" horiz-adv-x="334" 
d="M274 318v-82h-215v82h215z" />
    <glyph glyph-name="endash" unicode="&#x2013;" horiz-adv-x="371" 
d="M324 318v-82h-277v82h277z" />
    <glyph glyph-name="emdash" unicode="&#x2014;" horiz-adv-x="748" 
d="M673 319v-82h-599v82h599z" />
    <glyph glyph-name="uni2015" unicode="&#x2015;" horiz-adv-x="748" 
d="M673 319v-82h-599v82h599z" />
    <glyph glyph-name="quoteleft" unicode="&#x2018;" horiz-adv-x="284" 
d="M73 454l72 242h82l-52 -255h-102v13z" />
    <glyph glyph-name="quoteright" unicode="&#x2019;" horiz-adv-x="284" 
d="M211 699v-13l-72 -242h-82l52 255h102z" />
    <glyph glyph-name="quotesinglbase" unicode="&#x201a;" horiz-adv-x="284" 
d="M211 122v-13l-72 -242h-82l52 255h102z" />
    <glyph glyph-name="quotedblleft" unicode="&#x201c;" horiz-adv-x="486" 
d="M73 454l72 242h81l-52 -255h-101v13zM276 454l72 242h81l-52 -255h-101v13z" />
    <glyph glyph-name="quotedblright" unicode="&#x201d;" horiz-adv-x="486" 
d="M210 699v-13l-72 -242h-81l52 255h101zM413 699v-13l-72 -242h-81l52 255h101z" />
    <glyph glyph-name="quotedblbase" unicode="&#x201e;" horiz-adv-x="486" 
d="M210 122v-13l-72 -242h-81l52 255h101zM413 122v-13l-72 -242h-81l52 255h101z" />
    <glyph glyph-name="dagger" unicode="&#x2020;" horiz-adv-x="351" 
d="M332 481h-114v-252h-84v252h-115v83h115v121h84v-121h114v-83z" />
    <glyph glyph-name="daggerdbl" unicode="&#x2021;" horiz-adv-x="351" 
d="M218 493v-82h114v-78h-114v-114h-84v114h-115v78h115v82h-115v78h115v114h84v-114h114v-78h-114z" />
    <glyph glyph-name="bullet" unicode="&#x2022;" horiz-adv-x="440" 
d="M128.5 212.5q-36.5 35.5 -36.5 91.5t36.5 91t91.5 35q56 0 92 -35t36 -91q0 -57 -36 -92t-92 -35q-55 0 -91.5 35.5z" />
    <glyph glyph-name="ellipsis" unicode="&#x2026;" horiz-adv-x="776" 
d="M100 5q-17 17 -17 42q0 26 16.5 42.5t42.5 16.5t42.5 -16.5t16.5 -42.5t-16.5 -42.5t-42.5 -16.5q-25 0 -42 17zM346 5q-17 17 -17 42q0 26 16.5 42.5t42.5 16.5t42.5 -16.5t16.5 -42.5t-16.5 -42.5t-42.5 -16.5q-25 0 -42 17zM592 5q-17 17 -17 42q0 26 16.5 42.5
t42.5 16.5t42.5 -16.5t16.5 -42.5t-16.5 -42.5t-42.5 -16.5q-25 0 -42 17z" />
    <glyph glyph-name="perthousand" unicode="&#x2030;" horiz-adv-x="1052" 
d="M68 378q-34 33 -34 92v69q0 59 34.5 92t94.5 33t94 -33t34 -92v-69q0 -59 -33.5 -92t-94.5 -33t-95 33zM221 478v53q0 31 -15 47.5t-43 16.5t-43 -17t-15 -47v-53q0 -63 58 -63t58 63zM468 26q-34 33 -34 92v69q0 59 34.5 92t94.5 33t94 -33t34 -92v-69q0 -59 -33.5 -92
t-94.5 -33t-95 33zM621 126v53q0 31 -15 47.5t-43 16.5t-43 -17t-15 -47v-53q0 -63 58 -63t58 63zM546 656h78v-14l-444 -642h-78v13zM794 26q-34 33 -34 92v69q0 59 34.5 92t94.5 33t94 -33t34 -92v-69q0 -59 -33.5 -92t-94.5 -33t-95 33zM947 126v53q0 31 -15 47.5
t-43 16.5t-43 -17t-15 -47v-53q0 -63 58 -63t58 63z" />
    <glyph glyph-name="minute" unicode="&#x2032;" horiz-adv-x="284" 
d="M211 656v-13l-72 -246h-82l52 259h102z" />
    <glyph glyph-name="second" unicode="&#x2033;" horiz-adv-x="486" 
d="M210 656v-13l-72 -246h-81l52 259h101zM413 656v-13l-72 -246h-81l52 259h101z" />
    <glyph glyph-name="guilsinglleft" unicode="&#x2039;" horiz-adv-x="338" 
d="M66 284l113 212h93v-14l-110 -205l110 -205v-13h-93l-113 211v14z" />
    <glyph glyph-name="guilsinglright" unicode="&#x203a;" horiz-adv-x="338" 
d="M159 60h-93v14l110 205l-110 205v13h93l113 -211v-14z" />
    <glyph glyph-name="fraction" unicode="&#x2044;" horiz-adv-x="334" 
d="M350 656h78v-14l-444 -642h-78v13z" />
    <glyph glyph-name="uni2070" unicode="&#x2070;" horiz-adv-x="333" 
d="M70 368.5q-37 33.5 -37 87.5v187q0 55 36.5 88t97.5 33t97 -33t36 -88v-187q0 -55 -36.5 -88t-96.5 -33t-97 33.5zM206.5 421q14.5 15 14.5 41v175q0 26 -14.5 41t-39.5 15q-26 0 -40.5 -15t-14.5 -41v-175q0 -26 14.5 -41t40.5 -15q25 0 39.5 15z" />
    <glyph glyph-name="uni2074" unicode="&#x2074;" horiz-adv-x="333" 
d="M19 427v70q22 60 36 121.5t21 138.5h76v-11q-12 -133 -52 -249h101v188h75v-188h53v-70h-53v-84h-75v84h-182z" />
    <glyph glyph-name="uni2075" unicode="&#x2075;" horiz-adv-x="333" 
d="M75 366.5q-36 31.5 -36 86.5v6h75v-6q0 -22 15 -34t43 -12t43.5 13t15.5 36v35q0 23 -16 36t-44 13q-22 0 -36 -9t-18 -25h-76l14 251h236v-71h-170l-5 -100q29 24 76 24q54 0 84.5 -29.5t30.5 -82.5v-44q0 -57 -35 -88t-99 -31q-62 0 -98 31.5z" />
    <glyph glyph-name="uni2076" unicode="&#x2076;" horiz-adv-x="333" 
d="M72.5 368q-36.5 33 -36.5 89v183q0 57 36.5 91t98.5 34q64 0 99 -30.5t35 -86.5v-6h-78v6q0 22 -15 34.5t-41 12.5t-41 -13.5t-15 -38.5v-59q28 23 71 23q54 0 86.5 -30t32.5 -80v-44q0 -55 -35.5 -86.5t-98.5 -31.5q-62 0 -98.5 33zM212 417.5q15 13.5 15 36.5v36
q0 22 -15 34.5t-42 12.5q-17 0 -31.5 -6.5t-23.5 -17.5v-58q0 -23 15 -37t41 -14t41 13.5z" />
    <glyph glyph-name="uni2077" unicode="&#x2077;" horiz-adv-x="333" 
d="M131 516q32 83 91 169h-202v71h279v-71q-56 -84 -88 -168.5t-32 -151.5v-22h-80v22q0 68 32 151z" />
    <glyph glyph-name="uni2078" unicode="&#x2078;" horiz-adv-x="333" 
d="M67.5 364q-36.5 29 -36.5 79v32q0 26 14.5 47t41.5 34q-50 24 -50 78v30q0 47 35 74t95 27t94.5 -27t34.5 -74v-30q0 -54 -49 -78q26 -13 40.5 -34t14.5 -47v-32q0 -50 -36 -79t-99 -29t-99.5 29zM223 635v17q0 23 -14.5 35.5t-41.5 12.5q-28 0 -42.5 -12.5t-14.5 -35.5
v-17q0 -23 14.5 -35.5t42.5 -12.5q56 0 56 48zM209.5 413q15.5 13 15.5 36v23q0 22 -16 35.5t-42 13.5q-27 0 -43 -13.5t-16 -35.5v-23q0 -22 16 -35.5t43 -13.5t42.5 13z" />
    <glyph glyph-name="uni2079" unicode="&#x2079;" horiz-adv-x="333" 
d="M63 365.5q-35 30.5 -35 86.5v6h78v-6q0 -23 15 -35.5t41 -12.5t41 14t15 38v59q-30 -23 -71 -23q-54 0 -86.5 30t-32.5 80v44q0 55 35.5 86.5t98.5 31.5q62 0 98.5 -33t36.5 -89v-183q0 -57 -36.5 -90.5t-98.5 -33.5q-64 0 -99 30.5zM194.5 568.5q14.5 6.5 23.5 17.5v59
q0 23 -15 36.5t-41 13.5t-41 -13.5t-15 -36.5v-35q0 -23 15 -35.5t42 -12.5q17 0 31.5 6.5z" />
    <glyph glyph-name="uni2080" unicode="&#x2080;" horiz-adv-x="333" 
d="M70 -74.5q-37 33.5 -37 87.5v187q0 55 36.5 88t97.5 33t97 -33t36 -88v-187q0 -55 -36.5 -88t-96.5 -33t-97 33.5zM206.5 -22q14.5 15 14.5 41v175q0 26 -14.5 41t-39.5 15q-26 0 -40.5 -15t-14.5 -41v-175q0 -26 14.5 -41t40.5 -15q25 0 39.5 15z" />
    <glyph glyph-name="uni2081" unicode="&#x2081;" horiz-adv-x="333" 
d="M149 -29v247q-20 -11 -46 -11h-73v71h76q20 0 31.5 9t11.5 26h79v-342h100v-71h-298v71h119z" />
    <glyph glyph-name="uni2082" unicode="&#x2082;" horiz-adv-x="333" 
d="M143 78q43 45 59 70t16 46v7q0 23 -15 36t-40 13q-27 0 -42 -12.5t-15 -35.5v-15h-75v17q0 56 34.5 87t98.5 31t97.5 -29.5t33.5 -84.5v-7q0 -37 -19.5 -73t-66.5 -85l-69 -72h165v-71h-265v71z" />
    <glyph glyph-name="uni2083" unicode="&#x2083;" horiz-adv-x="333" 
d="M61.5 -76.5q-37.5 31.5 -37.5 83.5v16h76v-10q0 -23 16.5 -36t44.5 -13t44 13.5t16 36.5v29q0 22 -17 34.5t-49 12.5h-62v48l106 104h-165v72h259v-72l-90 -89l12 -1q83 -16 83 -99v-45q0 -53 -37 -84.5t-99 -31.5q-63 0 -100.5 31.5z" />
    <glyph glyph-name="uni2084" unicode="&#x2084;" horiz-adv-x="333" 
d="M19 -16v70q22 60 36 121.5t21 138.5h76v-11q-12 -133 -52 -249h101v188h75v-188h53v-70h-53v-84h-75v84h-182z" />
    <glyph glyph-name="uni2085" unicode="&#x2085;" horiz-adv-x="333" 
d="M75 -76.5q-36 31.5 -36 86.5v6h75v-6q0 -22 15 -34t43 -12t43.5 13t15.5 36v35q0 23 -16 36t-44 13q-22 0 -36 -9t-18 -25h-76l14 251h236v-71h-170l-5 -100q29 24 76 24q54 0 84.5 -29.5t30.5 -82.5v-44q0 -57 -35 -88t-99 -31q-62 0 -98 31.5z" />
    <glyph glyph-name="uni2086" unicode="&#x2086;" horiz-adv-x="333" 
d="M72.5 -75q-36.5 33 -36.5 89v183q0 57 36.5 91t98.5 34q64 0 99 -30.5t35 -86.5v-6h-78v6q0 22 -15 34.5t-41 12.5t-41 -13.5t-15 -38.5v-59q28 23 71 23q54 0 86.5 -30t32.5 -80v-44q0 -55 -35.5 -86.5t-98.5 -31.5q-62 0 -98.5 33zM212 -25.5q15 13.5 15 36.5v36
q0 22 -15 34.5t-42 12.5q-17 0 -31.5 -6.5t-23.5 -17.5v-58q0 -23 15 -37t41 -14t41 13.5z" />
    <glyph glyph-name="uni2087" unicode="&#x2087;" horiz-adv-x="333" 
d="M131 73q32 83 91 169h-202v71h279v-71q-56 -84 -88 -168.5t-32 -151.5v-22h-80v22q0 68 32 151z" />
    <glyph glyph-name="uni2088" unicode="&#x2088;" horiz-adv-x="333" 
d="M67.5 -79q-36.5 29 -36.5 79v32q0 26 14.5 47t41.5 34q-50 24 -50 78v30q0 47 35 74t95 27t94.5 -27t34.5 -74v-30q0 -54 -49 -78q26 -13 40.5 -34t14.5 -47v-32q0 -50 -36 -79t-99 -29t-99.5 29zM223 192v17q0 23 -14.5 35.5t-41.5 12.5q-28 0 -42.5 -12.5t-14.5 -35.5
v-17q0 -23 14.5 -35.5t42.5 -12.5q56 0 56 48zM209.5 -30q15.5 13 15.5 36v23q0 22 -16 35.5t-42 13.5q-27 0 -43 -13.5t-16 -35.5v-23q0 -22 16 -35.5t43 -13.5t42.5 13z" />
    <glyph glyph-name="uni2089" unicode="&#x2089;" horiz-adv-x="333" 
d="M63 -77.5q-35 30.5 -35 86.5v6h78v-6q0 -23 15 -35.5t41 -12.5t41 14t15 38v59q-30 -23 -71 -23q-54 0 -86.5 30t-32.5 80v44q0 55 35.5 86.5t98.5 31.5q62 0 98.5 -33t36.5 -89v-183q0 -57 -36.5 -90.5t-98.5 -33.5q-64 0 -99 30.5zM194.5 125.5q14.5 6.5 23.5 17.5v59
q0 23 -15 36.5t-41 13.5t-41 -13.5t-15 -36.5v-35q0 -23 15 -35.5t42 -12.5q17 0 31.5 6.5z" />
    <glyph glyph-name="Euro" unicode="&#x20ac;" horiz-adv-x="490" 
d="M374 410v72q0 52 -22.5 77t-69.5 25t-72.5 -26t-25.5 -74v-37h132v-79h-132v-85h132v-78h-132v-34q0 -49 24 -74t70 -25t71 26.5t25 75.5v69h90v-70q0 -91 -46 -138t-136 -47q-89 0 -139 47t-50 132v38h-88v78h88v85h-88v79h88v42q0 85 50 132t139 47t135.5 -47.5
t46.5 -138.5v-72h-90z" />
    <glyph glyph-name="uni20AE" unicode="&#x20ae;" horiz-adv-x="490" 
d="M291 571v-164l139 40v-83l-139 -40v-89l139 39v-81l-139 -39v-154h-91v134l-139 -40v80l139 40v89l-139 -40v84l139 40v184h-171v85h432v-85h-170z" />
    <glyph glyph-name="uni20B4" unicode="&#x20b4;" horiz-adv-x="490" 
d="M332 358l-85 -70h206v-77h-287q-21 -28 -21 -58q0 -38 26.5 -60t71.5 -22q44 0 72.5 22t28.5 56v12h88v-12q0 -73 -51.5 -117t-135.5 -44q-55 0 -97.5 19.5t-66.5 54t-24 78.5q0 35 17 71h-37v77h99l14 12l84 70h-197v78h281q21 28 21 60q0 35 -23.5 56t-63.5 21
t-66 -21.5t-26 -55.5v-12h-88v12q0 71 50 115.5t130 44.5q77 0 126 -41t49 -106q0 -37 -18 -73h44v-78h-107z" />
    <glyph glyph-name="uni20B8" unicode="&#x20b8;" horiz-adv-x="490" 
d="M456 656v-80h-423v80h423zM33 412v80h423v-80h-165v-412h-92v412h-166z" />
    <glyph glyph-name="uni20B9" unicode="&#x20b9;" horiz-adv-x="490" 
d="M361 577q22 -32 25 -83h84v-79h-85q-8 -75 -61 -117t-141 -42h-36l295 -242v-14h-105l-312 256v75h154q52 0 82.5 21.5t36.5 62.5h-273v79h275q-2 51 -25 83h-250v79h445v-79h-109z" />
    <glyph glyph-name="uni20BA" unicode="&#x20ba;" horiz-adv-x="490" 
d="M470 235v-46q0 -87 -52 -138t-143 -51h-182v219l-88 -36v88l88 35v95l-88 -35v86l88 36v168h93v-135l188 78v-88l-188 -77v-94l188 77v-87l-188 -78v-167h87q49 0 77 28t28 77v45h92z" />
    <glyph glyph-name="uni20BD" unicode="&#x20bd;" horiz-adv-x="490" 
d="M429 610.5q49 -45.5 49 -130.5v-20q0 -85 -48.5 -130t-140.5 -45h-98v-83h209v-80h-209v-122h-91v122h-92v80h92v83h-92v80h92v291h189q91 0 140 -45.5zM385 480q0 46 -24 70t-77 24h-93v-209h93q49 0 75 22.5t26 72.5v20z" />
    <glyph glyph-name="uni20BF" unicode="&#x20bf;" horiz-adv-x="490" 
d="M428.5 284q20.5 -34 20.5 -79v-18q0 -55 -25 -93t-70 -55v-97h-80v86h-69v-86h-80v86h-56v601h56v88h80v-88h69v88h80v-102q41 -17 63 -52t22 -84v-18q0 -44 -17.5 -76.5t-50.5 -49.5q37 -17 57.5 -51zM257 552h-102v-176h103q49 0 72 19.5t23 61.5v18q0 77 -96 77z
M362 203q0 88 -93 88h-114v-185h113q46 0 70 20.5t24 60.5v16z" />
    <glyph glyph-name="uni2113" unicode="&#x2113;" horiz-adv-x="486" 
d="M334 177h90l-3 -22q-8 -82 -52.5 -124.5t-120.5 -42.5q-74 0 -114 37.5t-40 105.5q0 11 2 33l4 32l-88 -49v89l99 57l24 198q21 177 179 177q70 0 109 -36.5t39 -102.5q0 -71 -44.5 -128t-142.5 -112l-81 -46l-10 -79q-1 -6 -1 -18q0 -35 18 -54.5t51 -19.5q70 0 81 91z
M225 490l-18 -145l49 30q65 41 91 73t26 71q0 30 -17 47.5t-46 17.5q-73 0 -85 -94z" />
    <glyph glyph-name="uni2116" unicode="&#x2116;" horiz-adv-x="855" 
d="M756.5 630.5q38.5 -37.5 38.5 -96.5v-16q0 -59 -38.5 -96.5t-99.5 -37.5t-99.5 37.5t-38.5 96.5v16q0 58 39 96t99 38q61 0 99.5 -37.5zM350 656h89v-656h-98l-192 462v-462h-89v656h98l192 -466v466zM724 534q0 29 -19 47.5t-48 18.5t-48 -18.5t-19 -47.5v-16
q0 -28 19 -46.5t48 -18.5t48 18t19 47v16zM537 275h240v-77h-240v77z" />
    <glyph glyph-name="trademark" unicode="&#x2122;" horiz-adv-x="542" 
d="M13 656h197v-55h-69v-259h-60v259h-68v55zM495 342h-54v199l-53 -199h-41l-54 203v-203h-54v314h72l56 -207l57 207h71v-314z" />
    <glyph glyph-name="uni2126" unicode="&#x2126;" horiz-adv-x="512" 
d="M428 181q-25 -43 -69 -63v-33h94v-85h-171v182q79 18 79 105v185q0 53 -27.5 82t-77.5 29t-77.5 -29.5t-27.5 -81.5v-185q0 -44 20.5 -71t58.5 -34v-182h-171v85h94v33q-44 21 -69 64t-25 101v193q0 88 53.5 140t143.5 52t143.5 -52t53.5 -140v-193q0 -59 -25 -102z" />
    <glyph glyph-name="estimated" unicode="&#x212e;" horiz-adv-x="758" 
d="M146 323v-225q41 -45 100.5 -69t132.5 -24q93 0 159.5 37t101.5 108h45q-42 -75 -122.5 -117.5t-183.5 -42.5t-181.5 41t-122 115t-43.5 171v21q0 97 43.5 171.5t122 115.5t181.5 41t181.5 -41t122 -115.5t43.5 -171.5v-15h-580zM245.5 627q-59.5 -24 -100.5 -70v-217
h465v216q-40 46 -99 70.5t-132 24.5q-74 0 -133.5 -24z" />
    <glyph glyph-name="oneeighth" unicode="&#x215b;" horiz-adv-x="952" 
d="M149 314v247q-20 -11 -46 -11h-73v71h76q20 0 31.5 9t11.5 26h79v-342h100v-71h-298v71h119zM683 656h78v-14l-444 -642h-78v13zM686.5 21q-36.5 29 -36.5 79v32q0 26 14.5 47t41.5 34q-50 24 -50 78v30q0 47 35 74t95 27t94.5 -27t34.5 -74v-30q0 -54 -49 -78
q26 -13 40.5 -34t14.5 -47v-32q0 -50 -36 -79t-99 -29t-99.5 29zM842 292v17q0 23 -14.5 35.5t-41.5 12.5q-28 0 -42.5 -12.5t-14.5 -35.5v-17q0 -23 14.5 -35.5t42.5 -12.5q56 0 56 48zM828.5 70q15.5 13 15.5 36v23q0 22 -16 35.5t-42 13.5q-27 0 -43 -13.5t-16 -35.5v-23
q0 -22 16 -35.5t43 -13.5t42.5 13z" />
    <glyph glyph-name="threeeighths" unicode="&#x215c;" horiz-adv-x="918" 
d="M61.5 266.5q-37.5 31.5 -37.5 83.5v16h76v-10q0 -23 16.5 -36t44.5 -13t44 13.5t16 36.5v29q0 22 -17 34.5t-49 12.5h-62v48l106 104h-165v72h259v-72l-90 -89l12 -1q83 -16 83 -99v-45q0 -53 -37 -84.5t-99 -31.5q-63 0 -100.5 31.5zM649 656h78v-14l-444 -642h-78v13z
M652.5 21q-36.5 29 -36.5 79v32q0 26 14.5 47t41.5 34q-50 24 -50 78v30q0 47 35 74t95 27t94.5 -27t34.5 -74v-30q0 -54 -49 -78q26 -13 40.5 -34t14.5 -47v-32q0 -50 -36 -79t-99 -29t-99.5 29zM808 292v17q0 23 -14.5 35.5t-41.5 12.5q-28 0 -42.5 -12.5t-14.5 -35.5v-17
q0 -23 14.5 -35.5t42.5 -12.5q56 0 56 48zM794.5 70q15.5 13 15.5 36v23q0 22 -16 35.5t-42 13.5q-27 0 -43 -13.5t-16 -35.5v-23q0 -22 16 -35.5t43 -13.5t42.5 13z" />
    <glyph glyph-name="fiveeighths" unicode="&#x215d;" horiz-adv-x="918" 
d="M75 266.5q-36 31.5 -36 86.5v6h75v-6q0 -22 15 -34t43 -12t43.5 13t15.5 36v35q0 23 -16 36t-44 13q-22 0 -36 -9t-18 -25h-76l14 251h236v-71h-170l-5 -100q29 24 76 24q54 0 84.5 -29.5t30.5 -82.5v-44q0 -57 -35 -88t-99 -31q-62 0 -98 31.5zM649 656h78v-14
l-444 -642h-78v13zM652.5 21q-36.5 29 -36.5 79v32q0 26 14.5 47t41.5 34q-50 24 -50 78v30q0 47 35 74t95 27t94.5 -27t34.5 -74v-30q0 -54 -49 -78q26 -13 40.5 -34t14.5 -47v-32q0 -50 -36 -79t-99 -29t-99.5 29zM808 292v17q0 23 -14.5 35.5t-41.5 12.5
q-28 0 -42.5 -12.5t-14.5 -35.5v-17q0 -23 14.5 -35.5t42.5 -12.5q56 0 56 48zM794.5 70q15.5 13 15.5 36v23q0 22 -16 35.5t-42 13.5q-27 0 -43 -13.5t-16 -35.5v-23q0 -22 16 -35.5t43 -13.5t42.5 13z" />
    <glyph glyph-name="seveneighths" unicode="&#x215e;" horiz-adv-x="883" 
d="M131 416q32 83 91 169h-202v71h279v-71q-56 -84 -88 -168.5t-32 -151.5v-22h-80v22q0 68 32 151zM614 656h78v-14l-444 -642h-78v13zM617.5 21q-36.5 29 -36.5 79v32q0 26 14.5 47t41.5 34q-50 24 -50 78v30q0 47 35 74t95 27t94.5 -27t34.5 -74v-30q0 -54 -49 -78
q26 -13 40.5 -34t14.5 -47v-32q0 -50 -36 -79t-99 -29t-99.5 29zM773 292v17q0 23 -14.5 35.5t-41.5 12.5q-28 0 -42.5 -12.5t-14.5 -35.5v-17q0 -23 14.5 -35.5t42.5 -12.5q56 0 56 48zM759.5 70q15.5 13 15.5 36v23q0 22 -16 35.5t-42 13.5q-27 0 -43 -13.5t-16 -35.5v-23
q0 -22 16 -35.5t43 -13.5t42.5 13z" />
    <glyph glyph-name="arrowleft" unicode="&#x2190;" horiz-adv-x="734" 
d="M666 246h-442l201 -200v-19h-113l-259 259v18l259 259h113v-17l-201 -202l442 1v-99z" />
    <glyph glyph-name="arrowup" unicode="&#x2191;" horiz-adv-x="734" 
d="M640 345v-114h-17l-206 207v-427h-98v427l-206 -207h-18v114l264 264h17z" />
    <glyph glyph-name="arrowright" unicode="&#x2192;" horiz-adv-x="734" 
d="M681 304v-18l-259 -259h-113v19l201 200h-442v99l442 -1l-201 202v17h113z" />
    <glyph glyph-name="arrowdown" unicode="&#x2193;" horiz-adv-x="734" 
d="M640 358v-115l-264 -264h-17l-264 264v115h18l206 -207v427h98v-427l206 207h17z" />
    <glyph glyph-name="uni2196" unicode="&#x2196;" horiz-adv-x="734" 
d="M553 59l-323 323l1 -297h-12l-78 77v368l12 12h366l78 -78v-13h-297l322 -322z" />
    <glyph glyph-name="uni2197" unicode="&#x2197;" horiz-adv-x="734" 
d="M593 531v-368l-78 -77h-12l1 297l-323 -323l-69 70l322 322h-297v13l78 77h366z" />
    <glyph glyph-name="uni2198" unicode="&#x2198;" horiz-adv-x="734" 
d="M593 430v-368l-12 -12h-366l-78 78v13h297l-322 322l69 70l323 -323l-1 297h12z" />
    <glyph glyph-name="uni2199" unicode="&#x2199;" horiz-adv-x="734" 
d="M300 141h297v-13l-78 -78h-366l-12 12v368l78 77h12l-1 -297l323 323l69 -70z" />
    <glyph glyph-name="uni21E1" unicode="&#x21e1;" horiz-adv-x="734" 
d="M334 518.5q-14 13.5 -14 31.5q0 19 14 33.5t33 14.5t33 -14t14 -34q0 -18 -14 -31.5t-33 -13.5t-33 13.5zM221.5 409.5q-13.5 13.5 -13.5 33.5q0 19 13.5 32.5t33.5 13.5q19 0 33 -13.5t14 -32.5q0 -20 -13.5 -33.5t-33.5 -13.5t-33.5 13.5zM446.5 409.5
q-13.5 13.5 -13.5 33.5q0 19 14 32.5t33 13.5t32.5 -13.5t13.5 -32.5q0 -20 -13.5 -33.5t-32.5 -13.5q-20 0 -33.5 13.5zM334 313q-14 14 -14 33q0 20 14 33.5t33 13.5q20 0 33.5 -13.5t13.5 -33.5q0 -19 -13.5 -33t-33.5 -14q-19 0 -33 14zM108.5 302.5
q-13.5 13.5 -13.5 33.5q0 19 13.5 32.5t33.5 13.5q19 0 33 -13.5t14 -32.5q0 -20 -14 -33.5t-33 -13.5q-20 0 -33.5 13.5zM560 302.5q-14 13.5 -14 33.5q0 19 14 32.5t33 13.5t33 -13.5t14 -32.5q0 -20 -13.5 -33.5t-33.5 -13.5q-19 0 -33 13.5zM334 162q-14 14 -14 33
t14 33t33 14t33 -14t14 -33t-13.5 -33t-33.5 -14q-19 0 -33 14zM334 11q-14 14 -14 33t14 33t33 14t33 -14t14 -33t-13.5 -33t-33.5 -14q-19 0 -33 14z" />
    <glyph glyph-name="uni21E3" unicode="&#x21e3;" horiz-adv-x="734" 
d="M400.5 574.5q13.5 -13.5 13.5 -33.5q0 -19 -14 -33t-33 -14t-33 14t-14 33t14 33t33 14q20 0 33.5 -13.5zM400.5 423.5q13.5 -13.5 13.5 -33.5q0 -19 -14 -33t-33 -14t-33 14t-14 33t14 33t33 14q20 0 33.5 -13.5zM175 282.5q14 -13.5 14 -33.5q0 -19 -14 -32.5
t-33 -13.5q-20 0 -33.5 13.5t-13.5 32.5q0 20 13.5 33.5t33.5 13.5q19 0 33 -13.5zM626.5 282.5q13.5 -13.5 13.5 -33.5q0 -19 -14 -32.5t-33 -13.5t-33 13.5t-14 32.5q0 20 14 33.5t33 13.5q20 0 33.5 -13.5zM400.5 272.5q13.5 -13.5 13.5 -33.5q0 -19 -13.5 -33t-33.5 -14
q-19 0 -33 14t-14 33t14 33t33 14q20 0 33.5 -13.5zM288.5 175.5q13.5 -13.5 13.5 -33.5q0 -19 -14 -32.5t-33 -13.5q-20 0 -33.5 13.5t-13.5 32.5q0 20 13.5 33.5t33.5 13.5t33.5 -13.5zM512.5 175.5q13.5 -13.5 13.5 -33.5q0 -19 -13.5 -32.5t-32.5 -13.5t-33 13.5
t-14 32.5q0 20 13.5 33.5t33.5 13.5q19 0 32.5 -13.5zM400 66.5q14 -13.5 14 -31.5q0 -20 -14 -34t-33 -14t-33 14.5t-14 33.5q0 18 14 31.5t33 13.5t33 -13.5z" />
    <glyph glyph-name="partialdiff" unicode="&#x2202;" horiz-adv-x="478" 
d="M395.5 621q48.5 -47 48.5 -131q0 -18 -3 -39l-36 -285q-11 -88 -58.5 -133t-129.5 -45q-83 0 -133 44.5t-50 116.5q0 14 1 21l9 84q7 72 56 114t124 42q69 0 115 -38l11 91q1 8 1 23q0 47 -24.5 72.5t-70.5 25.5q-34 0 -57.5 -16t-27.5 -40l-1 -7h-93l1 7q9 66 57 103
t124 37q88 0 136.5 -47zM282.5 95.5q24.5 23.5 30.5 69.5l14 109q-14 25 -38.5 38.5t-56.5 13.5q-41 0 -67 -23.5t-30 -63.5l-8 -68q-1 -5 -1 -14q0 -38 25 -61.5t66 -23.5t65.5 23.5z" />
    <glyph glyph-name="uni2206" unicode="&#x2206;" horiz-adv-x="481" 
d="M448 85v-85h-415v85l153 571h108zM118 85h243l-121 477z" />
    <glyph glyph-name="product" unicode="&#x220f;" horiz-adv-x="609" 
d="M10 571v85h589v-85h-115v-670h-92v670h-175v-670h-92v670h-115z" />
    <glyph glyph-name="summation" unicode="&#x2211;" horiz-adv-x="429" 
d="M400 571h-254l168 -273v-41l-168 -271h254v-85h-353v85l181 292l-181 293v85h353v-85z" />
    <glyph glyph-name="minus" unicode="&#x2212;" horiz-adv-x="490" 
d="M447 370v-84h-405v84h405z" />
    <glyph glyph-name="uni2215" unicode="&#x2215;" horiz-adv-x="485" 
d="M330 722h84v-15l-259 -773h-84v15z" />
    <glyph glyph-name="uni2219" unicode="&#x2219;" horiz-adv-x="284" 
d="M99.5 285.5q-16.5 16.5 -16.5 42.5t16.5 42.5t42.5 16.5t42.5 -16t16.5 -43q0 -26 -16.5 -42.5t-42.5 -16.5t-42.5 16.5z" />
    <glyph glyph-name="radical" unicode="&#x221a;" horiz-adv-x="556" 
d="M556 574h-134l-180 -673h-92l-127 428v13h81l90 -315l163 629h199v-82z" />
    <glyph glyph-name="infinity" unicode="&#x221e;" horiz-adv-x="743" 
d="M670.5 500q43.5 -52 43.5 -142v-59q0 -90 -43.5 -142t-119.5 -52q-40 0 -68.5 12t-53.5 41t-52 81l-5 11l-6 -11q-27 -52 -51.5 -81t-53 -41t-68.5 -12q-77 0 -120.5 51.5t-43.5 142.5v59q0 91 43.5 142.5t120.5 51.5q46 0 77 -16.5t51.5 -44t44.5 -73.5l6 -10l5 10
q26 48 47.5 75.5t51.5 43t75 15.5q76 0 119.5 -52zM324 329l-29 55q-26 49 -45.5 66.5t-51.5 17.5q-38 0 -60.5 -29.5t-22.5 -80.5v-59q0 -51 22.5 -80t60.5 -29q33 0 52.5 17.5t44.5 65.5zM629 358q0 50 -22.5 80t-61.5 30q-32 0 -51.5 -17.5t-45.5 -66.5l-29 -55l29 -56
q25 -48 45 -65.5t52 -17.5q39 0 61.5 29.5t22.5 79.5v59z" />
    <glyph glyph-name="integral" unicode="&#x222b;" horiz-adv-x="342" 
d="M67 -17q60 0 60 62v488q0 66 34.5 100.5t102.5 34.5h56v-83h-45q-29 0 -44 -15.5t-15 -46.5v-487q0 -135 -137 -135h-57v82h45z" />
    <glyph glyph-name="approxequal" unicode="&#x2248;" horiz-adv-x="490" 
d="M297.5 373q-21.5 5 -49.5 14q-36 10 -54.5 14.5t-42.5 4.5q-38 0 -100 -24v85q58 24 100 24q24 0 43.5 -4.5t54.5 -14.5q28 -9 49.5 -14t44.5 -5q42 0 94 21v-85q-49 -21 -94 -21q-24 0 -45.5 5zM297.5 176q-21.5 5 -49.5 14q-36 10 -54.5 14.5t-42.5 4.5q-38 0 -100 -24
v85q58 24 100 24q24 0 43.5 -4.5t54.5 -14.5q28 -9 49.5 -14t44.5 -5q42 0 94 21v-85q-49 -21 -94 -21q-24 0 -45.5 5z" />
    <glyph glyph-name="notequal" unicode="&#x2260;" horiz-adv-x="490" 
d="M313 396l-48 -136h172v-85h-203l-47 -133h-85v13l43 120h-93v85h123l49 136h-172v85h202l48 133h84v-13l-43 -120h94v-85h-124z" />
    <glyph glyph-name="lessequal" unicode="&#x2264;" horiz-adv-x="490" 
d="M432 463l-284 -105l284 -105v-80h-13l-371 134v102l371 134h13v-80zM48 100h384v-83h-384v83z" />
    <glyph glyph-name="greaterequal" unicode="&#x2265;" horiz-adv-x="490" 
d="M442 409v-102l-371 -134h-13v80l284 105l-284 105v80h13zM58 100h384v-83h-384v83z" />
    <glyph glyph-name="uni2460" unicode="&#x2460;" horiz-adv-x="682" 
d="M177.5 22q-70.5 35 -109 98.5t-38.5 146.5v122q0 83 39 146.5t109.5 98.5t162.5 35q93 0 163.5 -35t109 -98.5t38.5 -146.5v-122q0 -83 -39 -146.5t-109.5 -98.5t-162.5 -35q-93 0 -163.5 35zM516 112q64 57 64 157v117q0 101 -63.5 158t-175.5 57q-111 0 -175 -57.5
t-64 -157.5v-117q0 -100 63.5 -157t175.5 -57q111 0 175 57zM324 193v247q-20 -11 -46 -11h-73v71h76q20 0 31.5 9t11.5 26h79v-342h100v-71h-298v71h119z" />
    <glyph glyph-name="uni2461" unicode="&#x2461;" horiz-adv-x="682" 
d="M177.5 22q-70.5 35 -109 98.5t-38.5 146.5v122q0 83 39 146.5t109.5 98.5t162.5 35q93 0 163.5 -35t109 -98.5t38.5 -146.5v-122q0 -83 -39 -146.5t-109.5 -98.5t-162.5 -35q-93 0 -163.5 35zM516 112q64 57 64 157v117q0 101 -63.5 158t-175.5 57q-111 0 -175 -57.5
t-64 -157.5v-117q0 -100 63.5 -157t175.5 -57q111 0 175 57zM317 300q44 46 60 70.5t16 45.5v7q0 22 -15 35.5t-41 13.5q-27 0 -42 -12.5t-15 -35.5v-15h-75v17q0 56 35 87t99 31t97 -29t33 -85v-7q0 -37 -19 -72.5t-67 -85.5l-69 -72h166v-71h-266v71z" />
    <glyph glyph-name="uni2462" unicode="&#x2462;" horiz-adv-x="682" 
d="M177.5 22q-70.5 35 -109 98.5t-38.5 146.5v122q0 83 39 146.5t109.5 98.5t162.5 35q93 0 163.5 -35t109 -98.5t38.5 -146.5v-122q0 -83 -39 -146.5t-109.5 -98.5t-162.5 -35q-93 0 -163.5 35zM516 112q64 57 64 157v117q0 101 -63.5 158t-175.5 57q-111 0 -175 -57.5
t-64 -157.5v-117q0 -100 63.5 -157t175.5 -57q111 0 175 57zM238.5 145.5q-37.5 31.5 -37.5 83.5v16h76v-10q0 -22 16.5 -35.5t44.5 -13.5t44 13.5t16 36.5v29q0 23 -17 35t-48 12h-63v48l106 104h-164v72h258v-72l-89 -89l12 -1q82 -16 82 -99v-45q0 -53 -37 -84.5
t-99 -31.5q-63 0 -100.5 31.5z" />
    <glyph glyph-name="uni2463" unicode="&#x2463;" horiz-adv-x="682" 
d="M177.5 22q-70.5 35 -109 98.5t-38.5 146.5v122q0 83 39 146.5t109.5 98.5t162.5 35q93 0 163.5 -35t109 -98.5t38.5 -146.5v-122q0 -83 -39 -146.5t-109.5 -98.5t-162.5 -35q-93 0 -163.5 35zM516 112q64 57 64 157v117q0 101 -63.5 158t-175.5 57q-111 0 -175 -57.5
t-64 -157.5v-117q0 -100 63.5 -157t175.5 -57q111 0 175 57zM186 206v70q22 60 35.5 122t20.5 138h77v-11q-12 -133 -52 -249h101v188h74v-188h54v-70h-54v-84h-74v84h-182z" />
    <glyph glyph-name="uni2464" unicode="&#x2464;" horiz-adv-x="682" 
d="M177.5 22q-70.5 35 -109 98.5t-38.5 146.5v122q0 83 39 146.5t109.5 98.5t162.5 35q93 0 163.5 -35t109 -98.5t38.5 -146.5v-122q0 -83 -39 -146.5t-109.5 -98.5t-162.5 -35q-93 0 -163.5 35zM516 112q64 57 64 157v117q0 101 -63.5 158t-175.5 57q-111 0 -175 -57.5
t-64 -157.5v-117q0 -100 63.5 -157t175.5 -57q111 0 175 57zM243 145.5q-36 31.5 -36 86.5v6h75v-6q0 -22 15 -34t43 -12t43.5 13t15.5 36v35q0 23 -16 36t-44 13q-22 0 -36 -9t-18 -25h-76l14 251h236v-71h-169l-6 -100q30 24 76 24q54 0 85 -30t31 -82v-44q0 -57 -35 -88
t-100 -31q-62 0 -98 31.5z" />
    <glyph glyph-name="uni2465" unicode="&#x2465;" horiz-adv-x="682" 
d="M177.5 22q-70.5 35 -109 98.5t-38.5 146.5v122q0 83 39 146.5t109.5 98.5t162.5 35q93 0 163.5 -35t109 -98.5t38.5 -146.5v-122q0 -83 -39 -146.5t-109.5 -98.5t-162.5 -35q-93 0 -163.5 35zM516 112q64 57 64 157v117q0 101 -63.5 158t-175.5 57q-111 0 -175 -57.5
t-64 -157.5v-117q0 -100 63.5 -157t175.5 -57q111 0 175 57zM242.5 147q-36.5 33 -36.5 89v183q0 57 36.5 91t99.5 34q64 0 99 -30.5t35 -86.5v-6h-79v6q0 22 -14.5 34.5t-40.5 12.5q-27 0 -41.5 -13.5t-14.5 -38.5v-59q28 23 71 23q53 0 86 -30.5t33 -79.5v-44
q0 -55 -36 -86.5t-98 -31.5q-63 0 -99.5 33zM382.5 196.5q14.5 13.5 14.5 36.5v36q0 22 -14.5 34.5t-41.5 12.5q-17 0 -31.5 -6.5t-23.5 -17.5v-58q0 -23 15 -37t41 -14t40.5 13.5z" />
    <glyph glyph-name="uni2466" unicode="&#x2466;" horiz-adv-x="682" 
d="M177.5 22q-70.5 35 -109 98.5t-38.5 146.5v122q0 83 39 146.5t109.5 98.5t162.5 35q93 0 163.5 -35t109 -98.5t38.5 -146.5v-122q0 -83 -39 -146.5t-109.5 -98.5t-162.5 -35q-93 0 -163.5 35zM516 112q64 57 64 157v117q0 101 -63.5 158t-175.5 57q-111 0 -175 -57.5
t-64 -157.5v-117q0 -100 63.5 -157t175.5 -57q111 0 175 57zM312 294q32 83 91 170h-201v71h279v-71q-57 -84 -89 -168.5t-32 -151.5v-22h-80v22q0 67 32 150z" />
    <glyph glyph-name="uni2467" unicode="&#x2467;" horiz-adv-x="682" 
d="M177.5 22q-70.5 35 -109 98.5t-38.5 146.5v122q0 83 39 146.5t109.5 98.5t162.5 35q93 0 163.5 -35t109 -98.5t38.5 -146.5v-122q0 -83 -39 -146.5t-109.5 -98.5t-162.5 -35q-93 0 -163.5 35zM516 112q64 57 64 157v117q0 101 -63.5 158t-175.5 57q-111 0 -175 -57.5
t-64 -157.5v-117q0 -100 63.5 -157t175.5 -57q111 0 175 57zM242 143q-36 29 -36 79v32q0 26 14.5 47t40.5 34q-49 25 -49 78v30q0 47 34.5 74t94.5 27t95 -27t35 -74v-30q0 -54 -50 -78q26 -13 40.5 -34t14.5 -47v-32q0 -50 -36 -79t-99 -29t-99 29zM383.5 378.5
q14.5 12.5 14.5 35.5v17q0 23 -15 35.5t-42 12.5q-28 0 -42.5 -12.5t-14.5 -35.5v-17q0 -23 14.5 -35.5t42.5 -12.5t42.5 12.5zM384 192.5q16 13.5 16 35.5v23q0 22 -16 35.5t-43 13.5t-43 -13.5t-16 -35.5v-23q0 -22 16 -35.5t43 -13.5t43 13.5z" />
    <glyph glyph-name="uni2468" unicode="&#x2468;" horiz-adv-x="682" 
d="M177.5 22q-70.5 35 -109 98.5t-38.5 146.5v122q0 83 39 146.5t109.5 98.5t162.5 35q93 0 163.5 -35t109 -98.5t38.5 -146.5v-122q0 -83 -39 -146.5t-109.5 -98.5t-162.5 -35q-93 0 -163.5 35zM516 112.5q64 57.5 64 157.5v117q0 100 -63.5 157t-175.5 57q-111 0 -175 -57
t-64 -157v-117q0 -101 63.5 -158t175.5 -57q111 0 175 57.5zM241 142.5q-35 30.5 -35 86.5v6h79v-6q0 -22 14.5 -34.5t40.5 -12.5q27 0 41.5 13.5t14.5 38.5v59q-28 -23 -71 -23q-53 0 -86 30.5t-33 79.5v44q0 55 36 86.5t98 31.5q63 0 99.5 -33t36.5 -89v-183
q0 -57 -36.5 -91t-99.5 -34q-64 0 -99 30.5zM372.5 346.5q14.5 6.5 23.5 17.5v58q0 23 -15 37t-41 14t-40.5 -13.5t-14.5 -36.5v-36q0 -22 14.5 -34.5t41.5 -12.5q17 0 31.5 6.5z" />
    <glyph glyph-name="uni24EA" unicode="&#x24ea;" horiz-adv-x="682" 
d="M177.5 22q-70.5 35 -109 98.5t-38.5 146.5v122q0 83 39 146.5t109.5 98.5t162.5 35q93 0 163.5 -35t109 -98.5t38.5 -146.5v-122q0 -83 -39 -146.5t-109.5 -98.5t-162.5 -35q-93 0 -163.5 35zM516 112q64 57 64 157v117q0 101 -63.5 158t-175.5 57q-111 0 -175 -57.5
t-64 -157.5v-117q0 -100 63.5 -157t175.5 -57q111 0 175 57zM245 147.5q-37 33.5 -37 87.5v187q0 55 36.5 88t97.5 33t97 -33t36 -88v-187q0 -55 -36.5 -88t-96.5 -33t-97 33.5zM381.5 200q14.5 15 14.5 41v175q0 26 -14.5 41t-39.5 15q-26 0 -40.5 -15t-14.5 -41v-175
q0 -26 14.5 -41t40.5 -15q25 0 39.5 15z" />
    <glyph glyph-name="uni24FF" unicode="&#x24ff;" horiz-adv-x="682" 
d="M245 147.5q-37 33.5 -37 87.5v187q0 55 36.5 88t97.5 33t97 -33t36 -88v-187q0 -55 -36.5 -88t-96.5 -33t-97 33.5zM381.5 200q14.5 15 14.5 41v175q0 26 -14.5 41t-39.5 15q-26 0 -40.5 -15t-14.5 -41v-175q0 -26 14.5 -41t40.5 -15q25 0 39.5 15zM503.5 22
q70.5 35 109.5 98.5t39 146.5v122q0 83 -38.5 146.5t-109 98.5t-163.5 35q-92 0 -162.5 -35t-109.5 -98.5t-39 -146.5v-122q0 -83 38.5 -146.5t109 -98.5t163.5 -35q92 0 162.5 35z" />
    <glyph glyph-name="ltshade" unicode="&#x2591;" horiz-adv-x="540" 
d="M56 584.5q-14 13.5 -14 34.5q0 22 14 35.5t34 13.5q21 0 35 -13.5t14 -35.5q0 -21 -14 -34.5t-35 -13.5q-20 0 -34 13.5zM236 584.5q-14 13.5 -14 34.5q0 22 14 35.5t34 13.5q21 0 35 -13.5t14 -35.5q0 -21 -14 -34.5t-35 -13.5q-20 0 -34 13.5zM416 584.5
q-14 13.5 -14 34.5q0 22 14 35.5t34 13.5q21 0 35 -13.5t14 -35.5q0 -21 -14 -34.5t-35 -13.5q-20 0 -34 13.5zM55.5 390.5q-13.5 13.5 -13.5 34.5t14 35t34 14q22 0 35.5 -13.5t13.5 -35.5q0 -21 -14 -34.5t-35 -13.5t-34.5 13.5zM235.5 390.5q-13.5 13.5 -13.5 34.5t14 35
t34 14q21 0 35 -13.5t14 -35.5q0 -21 -14 -34.5t-35 -13.5t-34.5 13.5zM415.5 390.5q-13.5 13.5 -13.5 34.5t14 35t34 14q21 0 35 -13.5t14 -35.5q0 -21 -14 -34.5t-35 -13.5t-34.5 13.5zM56 196q-14 14 -14 35t13.5 34.5t34.5 13.5t35 -13.5t14 -34.5q0 -22 -14 -35.5
t-35 -13.5q-20 0 -34 14zM236 196q-14 14 -14 35t13.5 34.5t34.5 13.5t35 -13.5t14 -34.5q0 -22 -14 -35.5t-35 -13.5q-20 0 -34 14zM416 196q-14 14 -14 35t13.5 34.5t34.5 13.5t35 -13.5t14 -34.5t-13.5 -35t-35.5 -14q-20 0 -34 14zM56 2q-14 14 -14 35t14 34.5t34 13.5
q21 0 35 -13.5t14 -34.5q0 -22 -14 -35.5t-35 -13.5q-20 0 -34 14zM236 2q-14 14 -14 35t14 34.5t34 13.5q21 0 35 -13.5t14 -34.5q0 -22 -14 -35.5t-35 -13.5q-20 0 -34 14zM416 2q-14 14 -14 35t14 34.5t34 13.5q21 0 35 -13.5t14 -34.5q0 -22 -14 -35.5t-35 -13.5
q-20 0 -34 14z" />
    <glyph glyph-name="shade" unicode="&#x2592;" horiz-adv-x="436" 
d="M57 656h103l-160 -160v103zM276 656h103l-379 -379v103zM436 599v-103l-436 -438v103zM436 277l-275 -277h-103l378 380v-103zM436 58l-56 -58h-103l159 161v-103z" />
    <glyph glyph-name="filledbox" unicode="&#x25a0;" horiz-adv-x="910" 
d="M763 636v-616h-617v616h617z" />
    </font>
</defs>
</svg>
