<?xml version="1.0" standalone="no"?>
<!DOCTYPE svg PUBLIC "-//W3C//DTD SVG 1.1//EN" "http://www.w3.org/Graphics/SVG/1.1/DTD/svg11.dtd" >
<svg xmlns="http://www.w3.org/2000/svg" xmlns:xlink="http://www.w3.org/1999/xlink" version="1.1">
<metadata>
Created by FontForge 20170731 at Fri Jun  7 21:01:45 2019
 By Aleksey,,,
Copyright (c) 2019 by Lisa Fischbach, Jakob Runge and Nils Thomsen. All rights reserved.
</metadata>
<defs>
<font id="HalvarEng-Md" horiz-adv-x="446" >
  <font-face 
    font-family="Halvar Eng Md"
    font-weight="500"
    font-stretch="condensed"
    units-per-em="1000"
    panose-1="0 0 6 6 0 0 0 0 0 0"
    ascent="800"
    descent="-200"
    x-height="499"
    cap-height="656"
    bbox="-173 -221 1095 935"
    underline-thickness="50"
    underline-position="-200"
    unicode-range="U+0020-FB02"
  />
<missing-glyph horiz-adv-x="436" 
d="M44 656h128l-172 -172v128zM263 656h128l-391 -391v127zM436 612v-128l-436 -438v127zM436 265l-263 -265h-127l390 392v-127zM436 46l-44 -46h-127l171 173v-127z" />
    <glyph glyph-name=".notdef" horiz-adv-x="436" 
d="M44 656h128l-172 -172v128zM263 656h128l-391 -391v127zM436 612v-128l-436 -438v127zM436 265l-263 -265h-127l390 392v-127zM436 46l-44 -46h-127l171 173v-127z" />
    <glyph glyph-name=".null" horiz-adv-x="0" 
 />
    <glyph glyph-name="nonmarkingreturn" horiz-adv-x="333" 
 />
    <glyph glyph-name="space" unicode=" " horiz-adv-x="230" 
 />
    <glyph glyph-name="exclam" unicode="!" horiz-adv-x="254" 
d="M185 656l-5 -467h-107l-4 467h116zM76 8q-20 20 -20 51t20 50.5t51 19.5q32 0 51.5 -19.5t19.5 -50.5t-19.5 -51t-51.5 -20q-31 0 -51 20z" />
    <glyph glyph-name="quotedbl" unicode="&#x22;" horiz-adv-x="486" 
d="M200 696l-3 -265h-111l-3 265h117zM404 696l-4 -265h-111l-3 265h118z" />
    <glyph glyph-name="numbersign" unicode="#" horiz-adv-x="649" 
d="M506 421l-10 -186h81v-106h-88l-7 -129h-108l8 129h-137l-8 -129h-107l7 129h-85v106h91l11 186h-83v106h89l7 129h108l-8 -129h138l7 129h108l-7 -129h84v-106h-91zM389 234l10 189h-139l-11 -189h140z" />
    <glyph glyph-name="dollar" unicode="$" horiz-adv-x="490" 
d="M444 207v-18q0 -64 -37.5 -108t-102.5 -58v-83h-116v82q-68 14 -105 59t-37 115v26h112v-26q0 -36 22.5 -56t63.5 -20q40 0 62.5 16.5t22.5 45.5v11q0 25 -17 44.5t-62 37.5l-60 24q-136 54 -136 163v18q0 58 36 98.5t98 54.5v84h116v-84q63 -14 98 -55t35 -102v-26h-112
v21q0 31 -21.5 48.5t-58.5 17.5q-34 0 -55.5 -16t-21.5 -41v-10q0 -24 15.5 -40t59.5 -34l60 -24q141 -56 141 -165z" />
    <glyph glyph-name="percent" unicode="%" horiz-adv-x="726" 
d="M63 377.5q-36 34.5 -36 93.5v65q0 60 36.5 94t99.5 34t99 -34t36 -94v-65q0 -60 -36 -94t-99 -34q-64 0 -100 34.5zM211 482v43q0 26 -12.5 39.5t-35.5 13.5t-35.5 -14t-12.5 -39v-43q0 -53 48 -53t48 53zM463 27.5q-36 34.5 -36 93.5v65q0 60 36.5 94t99.5 34t99 -34
t36 -94v-65q0 -60 -36 -94t-99 -34q-64 0 -100 34.5zM611 132v43q0 26 -12.5 39.5t-35.5 13.5t-35.5 -14t-12.5 -39v-43q0 -53 48 -53t48 53zM542 656h98v-17l-457 -639h-97v16z" />
    <glyph glyph-name="ampersand" unicode="&#x26;" horiz-adv-x="539" 
d="M531 347l-117 -195l107 -135v-17h-126l-45 57q-32 -36 -69 -52.5t-84 -16.5q-77 0 -124 44t-47 115v22q0 44 25 86t76 86l-12 15q-33 42 -46.5 74t-13.5 69v22q0 65 48 106t125 41q74 0 120.5 -41t46.5 -106v-22q0 -41 -21.5 -77t-71.5 -78l-24 -20l65 -82l72 122h116
v-17zM165 499q0 -17 8 -34.5t27 -41.5l14 -18l15 12q34 28 45 44t11 38v11q0 25 -16 40t-44 15q-27 0 -43.5 -15t-16.5 -40v-11zM246.5 102q16.5 11 36.5 40l-92 118q-30 -27 -42 -47.5t-12 -45.5v-11q0 -29 19 -47t50 -18q24 0 40.5 11z" />
    <glyph glyph-name="quotesingle" unicode="'" horiz-adv-x="284" 
d="M202 696l-4 -265h-112l-3 265h119z" />
    <glyph glyph-name="parenleft" unicode="(" horiz-adv-x="326" 
d="M126 -4q-62 66 -62 173v318q0 107 61.5 173t170.5 68v-103q-58 -1 -89.5 -38t-31.5 -103v-312q0 -66 31.5 -103t89.5 -38v-103q-108 2 -170 68z" />
    <glyph glyph-name="parenright" unicode=")" horiz-adv-x="326" 
d="M200 660q62 -66 62 -173v-318q0 -107 -61.5 -173t-170.5 -68v103q58 1 89.5 38t31.5 103v312q0 66 -31.5 103t-89.5 38v103q108 -2 170 -68z" />
    <glyph glyph-name="asterisk" unicode="*" horiz-adv-x="385" 
d="M275 524l81 -44l-48 -74l-78 54l7 -95h-90l6 94l-76 -53l-48 74l81 44l-81 45l48 75l76 -54l-6 94h90l-7 -95l78 55l48 -75z" />
    <glyph glyph-name="plus" unicode="+" horiz-adv-x="490" 
d="M448 275h-150v-159h-106v159h-150v106h150v160h107v-160h149v-106z" />
    <glyph glyph-name="comma" unicode="," horiz-adv-x="284" 
d="M224 132v-16l-76 -249h-102l50 265h128z" />
    <glyph glyph-name="hyphen" unicode="-" horiz-adv-x="334" 
d="M278 329v-103h-223v103h223z" />
    <glyph glyph-name="period" unicode="." horiz-adv-x="284" 
d="M91 8q-20 20 -20 51t20 50.5t51 19.5q32 0 51.5 -19.5t19.5 -50.5t-19.5 -51t-51.5 -20q-31 0 -51 20z" />
    <glyph glyph-name="slash" unicode="/" horiz-adv-x="485" 
d="M319 724h105v-19l-258 -773h-105v19z" />
    <glyph glyph-name="zero" unicode="0" horiz-adv-x="488" 
d="M102.5 37q-53.5 49 -53.5 129v323q0 81 53 129.5t142 48.5t142 -48.5t53 -129.5v-323q0 -81 -53 -129.5t-142 -48.5q-88 0 -141.5 49zM302.5 116q21.5 22 21.5 59v304q0 38 -21.5 60t-58.5 22q-36 0 -57.5 -22t-21.5 -60v-304q0 -37 21.5 -59t57.5 -22q37 0 58.5 22z" />
    <glyph glyph-name="one" unicode="1" horiz-adv-x="318" 
d="M254 0h-116v500q-27 -9 -59 -9h-61v106h59q29 0 45 15.5t16 43.5h116v-656z" />
    <glyph glyph-name="two" unicode="2" horiz-adv-x="428" 
d="M402 106v-106h-360v107l136 170q56 70 77 112.5t21 87.5v10q0 36 -17.5 55.5t-49.5 19.5q-67 0 -67 -77v-27h-114v27q0 89 47.5 136t135.5 47q85 0 132 -46.5t47 -130.5v-10q0 -61 -26.5 -117.5t-98.5 -146.5l-89 -111h226z" />
    <glyph glyph-name="three" unicode="3" horiz-adv-x="436" 
d="M362.5 352.5q37.5 -41.5 37.5 -106.5v-83q0 -79 -52 -127t-137 -48q-89 0 -139 47.5t-50 131.5v30h114v-28q0 -35 20 -55t54 -20q35 0 55 21.5t20 59.5v53q0 73 -82 73h-88v91l137 158h-215v106h353v-106l-131 -148q66 -8 103.5 -49.5z" />
    <glyph glyph-name="four" unicode="4" horiz-adv-x="501" 
d="M475 135h-60v-135h-116v135h-263v106q33 96 53.5 194.5t31.5 220.5h113v-17q-20 -220 -79 -398h144v301h116v-301h60v-106z" />
    <glyph glyph-name="five" unicode="5" horiz-adv-x="456" 
d="M379 376q46 -45 46 -124v-83q0 -87 -49 -134t-140 -47q-93 0 -141 47t-48 137v10h113v-10q0 -78 75 -78q37 0 56.5 20.5t19.5 58.5v59q0 40 -20 62t-57 22q-29 0 -47.5 -14.5t-22.5 -42.5h-114l19 397h332v-106h-229l-7 -145q36 16 86 16q82 0 128 -45z" />
    <glyph glyph-name="six" unicode="6" horiz-adv-x="475" 
d="M322 475v10q0 37 -20.5 57.5t-57.5 20.5t-58 -20t-21 -55v-97q42 24 92 24q81 0 131 -45t50 -123v-78q0 -86 -51 -133.5t-143 -47.5q-90 0 -142.5 49.5t-52.5 134.5v312q0 85 52.5 134.5t142.5 49.5q93 0 143.5 -48t50.5 -135v-10h-116zM199 299.5q-21 -10.5 -34 -28.5
v-98q0 -37 21 -58.5t58 -21.5q36 0 57 21.5t21 58.5v61q0 34 -21.5 55t-56.5 21q-24 0 -45 -10.5z" />
    <glyph glyph-name="seven" unicode="7" horiz-adv-x="380" 
d="M356 656v-106q-67 -139 -105.5 -279t-38.5 -246v-25h-114v25q0 107 38 243.5t109 281.5h-238v106h349z" />
    <glyph glyph-name="eight" unicode="8" horiz-adv-x="471" 
d="M430 209v-54q0 -77 -53 -122t-141 -45q-89 0 -142 45t-53 122v54q0 41 18 73.5t51 53.5q-30 21 -46.5 53t-16.5 70v47q0 75 51.5 118.5t137.5 43.5t137.5 -43.5t51.5 -118.5v-47q0 -38 -17 -69.5t-47 -52.5q69 -44 69 -128zM157 456q0 -71 79 -71q78 0 78 71v40
q0 34 -20 52t-58 18t-58.5 -18t-20.5 -52v-40zM318 210q0 33 -22 52t-60 19t-60.5 -19t-22.5 -52v-47q0 -33 23 -52.5t60 -19.5t59.5 19.5t22.5 52.5v47z" />
    <glyph glyph-name="nine" unicode="9" horiz-adv-x="475" 
d="M373.5 618.5q52.5 -49.5 52.5 -134.5v-312q0 -85 -52.5 -134.5t-142.5 -49.5q-93 0 -143.5 48t-50.5 135v10h116v-10q0 -37 20.5 -57.5t57.5 -20.5t58 20t21 55v97q-42 -24 -92 -24q-81 0 -131 45t-50 123v78q0 86 51 133.5t143 47.5q90 0 142.5 -49.5zM276.5 356.5
q20.5 10.5 33.5 28.5v98q0 37 -21 58.5t-58 21.5q-36 0 -57 -21.5t-21 -58.5v-61q0 -34 21.5 -55t56.5 -21q25 0 45.5 10.5z" />
    <glyph glyph-name="colon" unicode=":" horiz-adv-x="324" 
d="M111 8q-20 20 -20 51t20 50.5t51 19.5q32 0 51.5 -19.5t19.5 -50.5t-19.5 -51t-51.5 -20q-31 0 -51 20zM111 363q-20 20 -20 51t20 50.5t51 19.5q32 0 51.5 -19.5t19.5 -50.5t-19.5 -51t-51.5 -20q-31 0 -51 20z" />
    <glyph glyph-name="semicolon" unicode=";" horiz-adv-x="324" 
d="M234 132v-16l-76 -249h-102l50 265h128zM111 363q-20 20 -20 51t20 50.5t51 19.5q32 0 51.5 -19.5t19.5 -50.5t-19.5 -51t-51.5 -20q-31 0 -51 20z" />
    <glyph glyph-name="less" unicode="&#x3c;" horiz-adv-x="490" 
d="M435 429l-257 -101l257 -101v-106h-16l-376 145v124l376 145h16v-106z" />
    <glyph glyph-name="equal" unicode="=" horiz-adv-x="490" 
d="M437 495v-107h-385v107h385zM437 268v-107h-385v107h385z" />
    <glyph glyph-name="greater" unicode="&#x3e;" horiz-adv-x="490" 
d="M447 390v-124l-376 -145h-16v106l257 101l-257 101v106h16z" />
    <glyph glyph-name="question" unicode="?" horiz-adv-x="421" 
d="M160 318q17 34 65 81q28 28 38.5 48t10.5 45v11q0 28 -18 45t-47 17q-32 0 -49 -18t-17 -52v-39h-110v41q0 82 46.5 126.5t131.5 44.5q80 0 127 -42.5t47 -115.5v-17q0 -43 -15 -74t-56 -73t-52.5 -63.5t-11.5 -54.5v-39h-107v48q0 47 17 81zM147 8q-20 20 -20 51
t20 50.5t51 19.5q32 0 51.5 -19.5t19.5 -50.5t-19.5 -51t-51.5 -20q-31 0 -51 20z" />
    <glyph glyph-name="at" unicode="@" horiz-adv-x="818" 
d="M605.5 628.5q81.5 -39.5 124.5 -114t43 -179.5v-152q0 -68 -40 -108.5t-109 -40.5q-76 0 -119 45q-37 -48 -112 -48q-45 0 -81 20.5t-56.5 56t-20.5 80.5v138q0 45 21 81t57 56.5t80 20.5q56 0 94 -29l3 18h89v-296q0 -22 12.5 -34.5t33.5 -12.5q23 0 35 14.5t12 42.5
v152q0 115 -65 173.5t-191 58.5q-131 0 -198 -60t-67 -178v-152q0 -110 62 -169t177 -59h135v-94h-135q-102 0 -179.5 39.5t-119.5 112t-42 168.5v156q0 159 95 246t267 87q113 0 194.5 -39.5zM447 137q17 9 28 25v190q-11 16 -28 25.5t-36 9.5q-34 0 -53.5 -22t-19.5 -59
v-99q0 -37 19.5 -58t53.5 -21q19 0 36 9z" />
    <glyph glyph-name="A" unicode="A" horiz-adv-x="499" 
d="M481 17v-17h-118l-29 127h-167l-30 -127h-118v17l163 639h137zM310 231l-60 257l-59 -257h119z" />
    <glyph glyph-name="B" unicode="B" horiz-adv-x="483" 
d="M429 276.5q22 -36.5 22 -87.5v-20q0 -79 -50 -124t-138 -45h-212v656h201q88 0 137.5 -43.5t49.5 -121.5v-20q0 -96 -74 -138q42 -20 64 -56.5zM167 551v-168h72q84 0 84 77v18q0 37 -21 55t-64 18h-71zM335 200q0 38 -22 58.5t-63 20.5h-83v-174h82q86 0 86 77v18z" />
    <glyph glyph-name="C" unicode="C" horiz-adv-x="502" 
d="M105 39.5q-56 51.5 -56 140.5v296q0 89 56 140.5t152 51.5q206 0 206 -216v-61h-116v61q0 56 -22 83t-69 27q-44 0 -67.5 -24.5t-23.5 -70.5v-279q0 -46 23.5 -70t67.5 -24q91 0 91 105v61h116v-61q0 -105 -52 -158t-154 -53q-96 0 -152 51.5z" />
    <glyph glyph-name="D" unicode="D" horiz-adv-x="497" 
d="M238 656q99 0 154.5 -52.5t55.5 -146.5v-259q0 -93 -55.5 -145.5t-154.5 -52.5h-187v656h187zM309.5 131q23.5 25 23.5 73v248q0 48 -23.5 73t-67.5 25h-75v-444h75q44 0 67.5 25z" />
    <glyph glyph-name="E" unicode="E" horiz-adv-x="429" 
d="M402 656v-106h-235v-170h218v-105h-218v-169h235v-106h-351v656h351z" />
    <glyph glyph-name="F" unicode="F" horiz-adv-x="421" 
d="M401 656v-106h-234v-185h217v-106h-217v-259h-116v656h350z" />
    <glyph glyph-name="G" unicode="G" horiz-adv-x="521" 
d="M354 432v36q0 44 -25 69t-69 25t-69.5 -25t-25.5 -68v-281q0 -45 24.5 -69t69.5 -24q63 0 97 46v109h-120v104h233v-354h-94l-4 29q-46 -41 -117 -41q-60 0 -106.5 24t-72.5 68t-26 100v296q0 89 56.5 140.5t154.5 51.5q100 0 155 -52t55 -148v-36h-116z" />
    <glyph glyph-name="H" unicode="H" horiz-adv-x="499" 
d="M167 656v-276h165v276h116v-656h-116v275h-165v-275h-116v656h116z" />
    <glyph glyph-name="I" unicode="I" horiz-adv-x="220" 
d="M168 656v-656h-116v656h116z" />
    <glyph glyph-name="J" unicode="J" horiz-adv-x="459" 
d="M79 37.5q-50 49.5 -50 139.5v84h116v-84q0 -40 19 -61.5t55 -21.5t55 19.5t19 56.5v380h-192v106h307v-496q0 -79 -51 -125.5t-138 -46.5q-90 0 -140 49.5z" />
    <glyph glyph-name="K" unicode="K" horiz-adv-x="496" 
d="M468 17v-17h-119l-127 253l-55 -89v-164h-116v656h116v-285l177 285h121v-17l-172 -276z" />
    <glyph glyph-name="L" unicode="L" horiz-adv-x="416" 
d="M167 656v-550h239v-106h-355v656h116z" />
    <glyph glyph-name="M" unicode="M" horiz-adv-x="629" 
d="M578 0h-112v427l-111 -427h-81l-111 424v-424h-112v656h151l112 -423l112 423h152v-656z" />
    <glyph glyph-name="N" unicode="N" horiz-adv-x="499" 
d="M448 656v-656h-123l-163 412v-412h-111v656h123l163 -418v418h111z" />
    <glyph glyph-name="O" unicode="O" horiz-adv-x="512" 
d="M104.5 39.5q-55.5 51.5 -55.5 140.5v296q0 88 56 140t151 52q96 0 151.5 -52t55.5 -140v-296q0 -89 -55.5 -140.5t-151.5 -51.5t-151.5 51.5zM324 118.5q24 24.5 24 69.5v279q0 46 -24 70.5t-68 24.5t-67.5 -24.5t-23.5 -70.5v-279q0 -45 23.5 -69.5t67.5 -24.5t68 24.5z
" />
    <glyph glyph-name="P" unicode="P" horiz-adv-x="482" 
d="M260 656q95 0 145.5 -48.5t50.5 -139.5v-20q0 -93 -50 -141t-146 -48h-93v-259h-116v656h209zM317 384.5q23 19.5 23 63.5v20q0 82 -89 82h-84v-185h84q43 0 66 19.5z" />
    <glyph glyph-name="Q" unicode="Q" horiz-adv-x="512" 
d="M407.5 616q55.5 -52 55.5 -140v-296q0 -66 -32 -112.5t-91 -66.5l40 -117v-17h-105l-41 122q-86 6 -135.5 57t-49.5 134v296q0 88 56 140t151 52q96 0 151.5 -52zM348 467q0 46 -24 70.5t-68 24.5t-67.5 -24.5t-23.5 -70.5v-279q0 -45 23.5 -69.5t67.5 -24.5t68 24.5
t24 69.5v279z" />
    <glyph glyph-name="R" unicode="R" horiz-adv-x="486" 
d="M458 17v-17h-115l-134 261h-42v-261h-116v656h209q95 0 145.5 -48.5t50.5 -139.5v-20q0 -74 -32.5 -119.5t-95.5 -60.5zM167 365h84q43 0 66 19.5t23 63.5v20q0 82 -89 82h-84v-185z" />
    <glyph glyph-name="S" unicode="S" horiz-adv-x="458" 
d="M81.5 39q-50.5 51 -50.5 147v30h113v-30q0 -93 83 -93q40 0 62.5 20t22.5 56v10q0 32 -18 54t-60 41l-58 26q-70 31 -104 73t-34 100v20q0 79 52.5 127t142.5 48q88 0 137.5 -47t49.5 -133v-30h-113v30q0 37 -17.5 56.5t-58.5 19.5q-37 0 -57.5 -17.5t-20.5 -49.5v-10
q0 -28 15.5 -48.5t57.5 -38.5l60 -26q73 -32 107.5 -76t34.5 -106v-20q0 -84 -53.5 -134t-147.5 -50q-95 0 -145.5 51z" />
    <glyph glyph-name="T" unicode="T" horiz-adv-x="404" 
d="M10 550v106h384v-106h-134v-550h-116v550h-134z" />
    <glyph glyph-name="U" unicode="U" horiz-adv-x="495" 
d="M101 36q-50 48 -50 141v479h116v-478q0 -84 81 -84q80 0 80 84v478h116v-479q0 -94 -49.5 -141.5t-146.5 -47.5t-147 48z" />
    <glyph glyph-name="V" unicode="V" horiz-adv-x="498" 
d="M480 656v-17l-163 -639h-135l-163 639v17h117l113 -469l113 469h118z" />
    <glyph glyph-name="W" unicode="W" horiz-adv-x="782" 
d="M764 656v-17l-147 -639h-135l-91 435l-90 -435h-135l-147 639v17h115l101 -468l100 468h113l101 -466l100 466h115z" />
    <glyph glyph-name="X" unicode="X" horiz-adv-x="496" 
d="M468 17v-17h-118l-102 231l-103 -231h-117v17l144 315l-141 307v17h117l100 -223l98 223h118v-17l-140 -307z" />
    <glyph glyph-name="Y" unicode="Y" horiz-adv-x="454" 
d="M443 639l-158 -380v-259h-116v257l-158 382v17h113l103 -255l102 255h114v-17z" />
    <glyph glyph-name="Z" unicode="Z" horiz-adv-x="426" 
d="M387 550l-227 -444h227v-106h-348v106l228 444h-218v106h338v-106z" />
    <glyph glyph-name="bracketleft" unicode="[" horiz-adv-x="304" 
d="M274 724v-103h-107v-586h107v-103h-223v792h223z" />
    <glyph glyph-name="backslash" unicode="\" horiz-adv-x="485" 
d="M61 724h105l258 -773v-19h-105l-258 773v19z" />
    <glyph glyph-name="bracketright" unicode="]" horiz-adv-x="304" 
d="M30 35h107v586h-107v103h223v-792h-223v103z" />
    <glyph glyph-name="asciicircum" unicode="^" horiz-adv-x="406" 
d="M383 388v-16h-107l-73 155l-72 -155h-108v16l131 268h98z" />
    <glyph glyph-name="underscore" unicode="_" horiz-adv-x="371" 
d="M324 -51v-102h-277v102h277z" />
    <glyph glyph-name="grave" unicode="`" horiz-adv-x="600" 
d="M161 716l278 -62v-100l-278 63v99z" />
    <glyph glyph-name="a" unicode="a" horiz-adv-x="462" 
d="M457 102v-102h-50q-64 0 -96 34q-42 -46 -122 -46q-74 0 -116 38.5t-42 106.5q0 62 38.5 99t117.5 51l94 16v42q0 32 -17 49t-49 17q-34 0 -51.5 -18.5t-17.5 -54.5v-10h-111v10q0 87 45.5 132t131.5 45q88 0 134 -45t46 -131v-193q0 -40 36 -40h29zM247 96.5
q22 12.5 34 33.5v77l-68 -11q-34 -5 -53 -21.5t-19 -39.5q0 -24 15.5 -37.5t43.5 -13.5q25 0 47 12.5z" />
    <glyph glyph-name="b" unicode="b" horiz-adv-x="454" 
d="M371 467q44 -44 44 -117v-201q0 -73 -44.5 -117t-115.5 -44q-64 0 -107 35l-3 -23h-97v696h112v-215q39 30 96 30q71 0 115 -44zM303 330q0 36 -19 56t-52 20q-21 0 -40 -10.5t-32 -28.5v-235q13 -18 32 -28t40 -10q33 0 52 20t19 56v160z" />
    <glyph glyph-name="c" unicode="c" horiz-adv-x="442" 
d="M88.5 33q-48.5 45 -48.5 126v180q0 82 48 127t135 45q86 0 134 -45t48 -127v-46h-112v42q0 32 -19 51.5t-51 19.5t-51.5 -19.5t-19.5 -51.5v-171q0 -32 19.5 -51t51.5 -19t51 19t19 51v38h112v-43q0 -81 -48 -126t-134 -45t-134.5 45z" />
    <glyph glyph-name="d" unicode="d" horiz-adv-x="454" 
d="M407 696v-696h-97l-3 23q-43 -35 -107 -35q-71 0 -115.5 44t-44.5 117v201q0 73 44 117t115 44q57 0 96 -30v215h112zM263 104q19 10 32 28v235q-13 18 -32 28.5t-40 10.5q-33 0 -52 -20t-19 -56v-160q0 -36 19 -56t52 -20q21 0 40 10z" />
    <glyph glyph-name="e" unicode="e" 
d="M151 213v-56q0 -29 19.5 -47t52.5 -18q34 0 53 19t19 51h111q-2 -84 -49.5 -129t-133.5 -45q-87 0 -135 45t-48 126v180q0 82 48 127t135 45t135 -45t48 -127v-126h-255zM171 389q-20 -18 -20 -48v-36h144v36q0 30 -19.5 48t-52.5 18q-32 0 -52 -18z" />
    <glyph glyph-name="f" unicode="f" horiz-adv-x="348" 
d="M340 397h-127v-397h-111v397h-98v102h98v52q0 72 38.5 108.5t112.5 36.5h56v-102h-44q-25 0 -38.5 -14t-13.5 -39v-42h127v-102z" />
    <glyph glyph-name="g" unicode="g" horiz-adv-x="454" 
d="M407 499v-509q0 -83 -48 -127.5t-137 -44.5t-136.5 45t-47.5 130v10h112v-10q0 -34 17 -52t57 -18q34 0 52.5 17t18.5 50v73q-42 -33 -97 -33q-73 0 -116 44.5t-43 118.5v164q0 70 43.5 112t117.5 42q67 0 106 -39l4 27h97zM263.5 143.5q18.5 10.5 31.5 29.5v193
q-13 19 -31.5 29.5t-38.5 10.5q-34 0 -54 -21t-20 -58v-115q0 -37 20 -58t54 -21q20 0 38.5 10.5z" />
    <glyph glyph-name="h" unicode="h" horiz-adv-x="459" 
d="M372 469q41 -42 41 -119v-350h-111v331q0 75 -70 75q-21 0 -40 -10.5t-32 -28.5v-367h-112v696h112v-218q42 33 99 33q72 0 113 -42z" />
    <glyph glyph-name="i" unicode="i" horiz-adv-x="210" 
d="M160 499v-499h-111v499h111zM52 582q-21 21 -21 53q0 33 21 53.5t53 20.5q33 0 53.5 -20t20.5 -54q0 -32 -20.5 -53t-53.5 -21q-32 0 -53 21z" />
    <glyph glyph-name="j" unicode="j" horiz-adv-x="210" 
d="M-6 -67q26 0 40.5 15.5t14.5 42.5v508h111v-516q0 -70 -41 -111.5t-110 -41.5h-56v103h41zM52 582q-21 21 -21 53q0 33 21 53.5t53 20.5q33 0 53.5 -20t20.5 -54q0 -32 -20.5 -53t-53.5 -21q-32 0 -53 21z" />
    <glyph glyph-name="k" unicode="k" 
d="M435 16v-16h-121l-98 191l-56 -79v-112h-112v696h112v-402l147 205h122v-16l-138 -194z" />
    <glyph glyph-name="l" unicode="l" horiz-adv-x="232" 
d="M82.5 32q-33.5 32 -33.5 91v573h111v-554q0 -19 8 -29.5t28 -10.5h33v-102h-51q-62 0 -95.5 32z" />
    <glyph glyph-name="m" unicode="m" horiz-adv-x="702" 
d="M618.5 468.5q41.5 -42.5 41.5 -118.5v-350h-112v331q0 75 -68 75q-42 0 -71 -36q1 -6 1 -20v-350h-113v331q0 75 -67 75q-21 0 -39.5 -10t-31.5 -28v-368h-112v499h96l5 -30q21 20 49.5 31t60.5 11q40 0 71.5 -14.5t51.5 -42.5q21 28 53 42.5t72 14.5q71 0 112.5 -42.5z
" />
    <glyph glyph-name="n" unicode="n" horiz-adv-x="459" 
d="M372.5 468.5q40.5 -42.5 40.5 -118.5v-350h-111v331q0 36 -16.5 55.5t-53.5 19.5q-21 0 -40 -10.5t-32 -27.5v-368h-112v499h97l4 -30q21 20 49.5 31t60.5 11q73 0 113.5 -42.5z" />
    <glyph glyph-name="o" unicode="o" 
d="M89.5 31.5q-49.5 43.5 -49.5 127.5v180q0 84 49.5 128t133.5 44t133.5 -43.5t49.5 -128.5v-180q0 -84 -49.5 -127.5t-133.5 -43.5t-133.5 43.5zM274.5 112q19.5 18 19.5 52v171q0 34 -20 52.5t-51 18.5t-51 -18.5t-20 -52.5v-171q0 -33 20 -51.5t51 -18.5q32 0 51.5 18z
" />
    <glyph glyph-name="p" unicode="p" horiz-adv-x="454" 
d="M371.5 470q43.5 -41 43.5 -113v-215q0 -73 -44 -113.5t-115 -40.5q-56 0 -96 26v-184h-112v669h97l4 -27q42 39 109 39q70 0 113.5 -41zM303 331q0 36 -19 55.5t-52 19.5q-21 0 -40 -10.5t-32 -28.5v-235q13 -18 32 -28t40 -10q33 0 52 20t19 56v161z" />
    <glyph glyph-name="q" unicode="q" horiz-adv-x="454" 
d="M407 499v-669h-112v184q-40 -26 -96 -26q-71 0 -115 40.5t-44 113.5v215q0 72 43.5 113t113.5 41q67 0 109 -39l4 27h97zM263 104q19 10 32 28v235q-13 18 -32 28.5t-40 10.5q-33 0 -52 -19.5t-19 -55.5v-161q0 -36 19 -56t52 -20q21 0 40 10z" />
    <glyph glyph-name="r" unicode="r" horiz-adv-x="307" 
d="M297 499v-102h-56q-58 0 -81 -41v-356h-111v499h96l5 -32q42 32 91 32h56z" />
    <glyph glyph-name="s" unicode="s" horiz-adv-x="427" 
d="M82 29.5q-46 41.5 -46 118.5v18h111v-18q0 -29 17.5 -44.5t48.5 -15.5q30 0 48.5 13t18.5 35v8q0 19 -15.5 32.5t-47.5 22.5l-51 14q-60 16 -92 52t-32 86v16q0 66 47.5 105t127.5 39q83 0 127.5 -40t44.5 -115v-18h-109v18q0 26 -18 41t-47 15t-45.5 -12t-16.5 -32v-8
q0 -35 51 -50l62 -17q65 -18 95.5 -51t30.5 -91v-16q0 -68 -47.5 -107.5t-130.5 -39.5q-86 0 -132 41.5z" />
    <glyph glyph-name="t" unicode="t" horiz-adv-x="348" 
d="M213 397v-236q0 -28 14 -43.5t39 -15.5h50v-102h-65q-70 0 -109.5 38t-39.5 106v253h-98v102h71q17 0 24 7.5t7 23.5v102h107v-133h127v-102h-127z" />
    <glyph glyph-name="u" unicode="u" horiz-adv-x="459" 
d="M411 499v-499h-97l-4 30q-21 -20 -49.5 -31t-60.5 -11q-73 0 -113.5 42.5t-40.5 118.5v350h111v-331q0 -36 16.5 -55.5t53.5 -19.5q21 0 40 10.5t32 27.5v368h112z" />
    <glyph glyph-name="v" unicode="v" 
d="M430 499v-16l-142 -483h-130l-142 483v16h110l97 -348l96 348h111z" />
    <glyph glyph-name="w" unicode="w" horiz-adv-x="678" 
d="M662 499v-16l-120 -483h-131l-72 312l-72 -312h-131l-120 483v16h107l80 -353l78 353h116l78 -353l80 353h107z" />
    <glyph glyph-name="x" unicode="x" horiz-adv-x="436" 
d="M418 16v-16h-116l-83 152l-84 -152h-116v16l130 235l-127 232v16h116l81 -148l80 148h116v-16l-127 -232z" />
    <glyph glyph-name="y" unicode="y" horiz-adv-x="464" 
d="M448 499v-16l-171 -542q-19 -60 -54.5 -85.5t-98.5 -25.5h-62v103h51q25 0 37.5 9.5t19.5 34.5l8 28l-162 478v16h118l101 -333l95 333h118z" />
    <glyph glyph-name="z" unicode="z" horiz-adv-x="421" 
d="M377 397l-206 -295h206v-102h-333v102l206 295h-206v102h333v-102z" />
    <glyph glyph-name="braceleft" unicode="{" horiz-adv-x="391" 
d="M182 328q67 -18 67 -109v-128q0 -27 13.5 -41.5t38.5 -14.5h60v-103h-84q-62 0 -100.5 41t-38.5 106v147q0 24 -13.5 37.5t-38.5 13.5h-42v102h42q25 0 38.5 13.5t13.5 38.5v147q0 65 38.5 105.5t100.5 40.5h84v-103h-60q-25 0 -38.5 -14.5t-13.5 -41.5v-127
q0 -90 -67 -110z" />
    <glyph glyph-name="bar" unicode="|" horiz-adv-x="260" 
d="M188 724v-792h-116v792h116z" />
    <glyph glyph-name="braceright" unicode="}" horiz-adv-x="391" 
d="M347 379v-102h-42q-25 0 -38.5 -13.5t-13.5 -38.5v-147q0 -65 -38.5 -105.5t-100.5 -40.5h-84v103h60q25 0 38.5 14.5t13.5 41.5v127q0 90 67 110q-67 18 -67 109v128q0 27 -13.5 41.5t-38.5 14.5h-60v103h84q62 0 100.5 -41t38.5 -106v-147q0 -24 13.5 -37.5t38.5 -13.5
h42z" />
    <glyph glyph-name="asciitilde" unicode="~" horiz-adv-x="490" 
d="M302 259q-23 5 -53 14q-34 9 -55.5 13.5t-46.5 4.5q-41 0 -105 -25v107q61 24 105 24q26 0 49 -5t54 -14q32 -9 54 -13.5t46 -4.5q42 0 97 21v-106q-51 -21 -97 -21q-25 0 -48 5z" />
    <glyph glyph-name="uni00A0" unicode="&#xa0;" horiz-adv-x="230" 
 />
    <glyph glyph-name="exclamdown" unicode="&#xa1;" horiz-adv-x="254" 
d="M75.5 390q-19.5 19 -19.5 51q0 31 20 50.5t51 19.5t51 -19.5t20 -50.5t-20 -50.5t-51 -19.5q-32 0 -51.5 19zM180 311l5 -481h-116l4 481h107z" />
    <glyph glyph-name="cent" unicode="&#xa2;" horiz-adv-x="490" 
d="M337 368v25q0 42 -23 64t-67 22q-43 0 -67.5 -22t-24.5 -61v-136q0 -39 24.5 -61t67.5 -22t66.5 22.5t23.5 62.5v25h115v-25q0 -79 -38 -126.5t-111 -60.5v-85h-114v87q-70 14 -109.5 60t-39.5 115v152q0 69 39.5 115t109.5 60v87h114v-85q73 -12 111 -60t38 -128v-25
h-115z" />
    <glyph glyph-name="sterling" unicode="&#xa3;" horiz-adv-x="490" 
d="M353 464v20q0 78 -68 78q-33 0 -50.5 -20.5t-17.5 -58.5v-126h152v-102h-152v-78q0 -44 -21 -71h267v-106h-436v106h15q64 0 64 66v83h-79v102h79v125q0 89 46.5 137.5t132.5 48.5q87 0 132.5 -47.5t45.5 -136.5v-21z" />
    <glyph glyph-name="currency" unicode="&#xa4;" horiz-adv-x="490" 
d="M410 198l74 -74l-80 -80l-76 76q-36 -15 -83 -15t-82 15l-77 -76l-80 80l75 74q-14 33 -14 71v109q0 39 14 72l-74 74l80 79l76 -76q36 15 82 15q48 0 82 -15l76 76l81 -79l-74 -74q14 -33 14 -72v-109q0 -38 -14 -71zM295.5 230.5q18.5 17.5 18.5 47.5v92
q0 30 -18.5 47.5t-50.5 17.5t-50.5 -17.5t-18.5 -47.5v-92q0 -30 18.5 -47.5t50.5 -17.5t50.5 17.5z" />
    <glyph glyph-name="yen" unicode="&#xa5;" horiz-adv-x="490" 
d="M465 639l-136 -313h108v-95h-134v-64h134v-95h-134v-72h-116v72h-133v95h133v64h-133v95h108l-136 313v17h114l105 -256l105 256h115v-17z" />
    <glyph glyph-name="brokenbar" unicode="&#xa6;" horiz-adv-x="260" 
d="M188 724v-266h-116v266h116zM188 198v-266h-116v266h116z" />
    <glyph glyph-name="section" unicode="&#xa7;" horiz-adv-x="448" 
d="M389.5 257.5q-12.5 -23.5 -35.5 -40.5q35 -35 35 -75v-23q0 -58 -48.5 -94.5t-124.5 -36.5q-77 0 -123 37t-46 100v17h109v-17q0 -46 62 -46q30 0 46.5 10t16.5 29v9q0 27 -53 47l-84 31q-98 36 -98 124v19q0 56 48 91q-36 34 -36 75v23q0 58 48.5 94.5t125.5 36.5
t122.5 -37t45.5 -100v-17h-108v17q0 22 -16 34t-46 12t-46.5 -10t-16.5 -29v-9q0 -13 12 -24t41 -22l83 -32q51 -19 75 -49.5t24 -74.5v-19q0 -27 -12.5 -50.5zM276 265q19 19 19 41v11q0 28 -46 45l-78 30q-18 -19 -18 -42v-11q0 -13 12 -25t33 -20z" />
    <glyph glyph-name="dieresis" unicode="&#xa8;" horiz-adv-x="600" 
d="M161.5 588q-18.5 18 -18.5 47t18 47t47 18t47 -17.5t18 -47.5t-18 -47.5t-47 -17.5q-28 0 -46.5 18zM344 587.5q-18 17.5 -18 47.5t18 47.5t47 17.5t47 -18t18 -47t-18 -47t-47 -18t-47 17.5z" />
    <glyph glyph-name="copyright" unicode="&#xa9;" horiz-adv-x="662" 
d="M174.5 23.5q-68.5 35.5 -106 98.5t-37.5 145v122q0 82 38 145t106 98.5t156 35.5q89 0 157 -35t105.5 -98.5t37.5 -145.5v-122q0 -82 -37.5 -145.5t-105.5 -98.5t-157 -35q-88 0 -156.5 35.5zM484.5 126.5q57.5 54.5 57.5 145.5v111q0 92 -57.5 146.5t-153.5 54.5
q-95 0 -153 -55t-58 -146v-111q0 -91 57.5 -145.5t153.5 -54.5t153.5 54.5zM227 173.5q-39 37.5 -39 102.5v100q0 66 39.5 105t105.5 39t104 -39t38 -107v-25h-90v21q0 27 -14 42t-39 15t-39.5 -15t-14.5 -42v-85q0 -25 14.5 -40t39.5 -15t39 14t14 41v17h90v-25
q0 -66 -38 -103.5t-104 -37.5q-67 0 -106 37.5z" />
    <glyph glyph-name="ordfeminine" unicode="&#xaa;" horiz-adv-x="390" 
d="M389 335v-90h-46q-50 0 -78 25q-37 -35 -105 -35q-65 0 -101.5 31t-36.5 87q0 51 33 81t101 41l80 13v35q0 24 -14.5 36.5t-40.5 12.5q-57 0 -57 -57v-7h-98v7q0 73 39 110.5t115 37.5q155 0 155 -146v-152q0 -30 29 -30h25zM207.5 326q17.5 9 28.5 25v60l-57 -10
q-60 -11 -60 -46q0 -18 13 -28t36 -10q22 0 39.5 9z" />
    <glyph glyph-name="guillemotleft" unicode="&#xab;" horiz-adv-x="544" 
d="M175 278l106 -206v-16h-117l-109 213v17l109 213h117v-17zM381 278l106 -206v-16h-117l-109 213v17l109 213h117v-17z" />
    <glyph glyph-name="logicalnot" unicode="&#xac;" horiz-adv-x="490" 
d="M42 275v106h405v-263h-116v157h-289z" />
    <glyph glyph-name="uni00AD" unicode="&#xad;" horiz-adv-x="334" 
d="M278 329v-103h-223v103h223z" />
    <glyph glyph-name="registered" unicode="&#xae;" horiz-adv-x="464" 
d="M376.5 656q54.5 -52 54.5 -138v-57q0 -87 -54 -138.5t-144 -51.5t-145 52.5t-55 137.5v57q0 56 25 99.5t70.5 67t104.5 23.5q89 0 143.5 -52zM362 518q0 59 -34.5 92t-94.5 33t-95 -33.5t-35 -91.5v-57q0 -58 35 -91.5t95 -33.5q61 0 95 33t34 92v57zM291 466l37 -71v-6
h-65l-36 68h-11v-68h-64v202h88q41 0 62.5 -14t21.5 -48v-7q0 -39 -33 -56zM216 502h23q25 0 25 18v7q0 18 -25 18h-23v-43z" />
    <glyph glyph-name="macron" unicode="&#xaf;" horiz-adv-x="600" 
d="M439 684v-98h-278v98h278z" />
    <glyph glyph-name="degree" unicode="&#xb0;" horiz-adv-x="350" 
d="M72 415.5q-40 38.5 -40 98.5v17q0 59 40.5 98t102.5 39q63 0 103 -38.5t40 -98.5v-17q0 -60 -40 -98.5t-103 -38.5t-103 38.5zM214.5 476.5q15.5 14.5 15.5 37.5v17q0 23 -15.5 38t-39.5 15t-39.5 -15t-15.5 -38v-17q0 -23 15.5 -37.5t39.5 -14.5t39.5 14.5z" />
    <glyph glyph-name="plusminus" unicode="&#xb1;" horiz-adv-x="490" 
d="M437 415v-105h-138v-150h-107v150h-140v105h140v151h107v-151h138zM52 113h385v-104h-385v104z" />
    <glyph glyph-name="uni00B2" unicode="&#xb2;" horiz-adv-x="333" 
d="M140 539q38 40 51.5 59t13.5 34v7q0 17 -11.5 27t-30.5 10q-21 0 -32.5 -10t-11.5 -27v-14h-94v17q0 59 36.5 91t103.5 32t101.5 -29.5t34.5 -87.5v-7q0 -34 -18 -67t-61 -78l-62 -65h150v-88h-274v88z" />
    <glyph glyph-name="uni00B3" unicode="&#xb3;" horiz-adv-x="333" 
d="M57.5 367.5q-39.5 32.5 -39.5 87.5v18h95v-11q0 -17 13.5 -27.5t35.5 -10.5q23 0 35.5 10.5t12.5 29.5v21q0 36 -55 36h-68v59l92 88h-149v89h266v-89l-71 -69l7 -2q39 -10 56.5 -34t17.5 -65v-42q0 -55 -39 -88t-104 -33q-66 0 -105.5 32.5z" />
    <glyph glyph-name="acute" unicode="&#xb4;" horiz-adv-x="600" 
d="M439 716v-99l-278 -63v100z" />
    <glyph glyph-name="uni00B5" unicode="&#xb5;" horiz-adv-x="484" 
d="M480 102v-102h-52q-61 0 -96 33q-17 -21 -42.5 -33t-55.5 -12q-46 0 -74 20v-178h-112v669h112v-332q0 -36 18.5 -54.5t53.5 -18.5q22 0 40.5 9.5t29.5 26.5v369h111v-357q0 -40 37 -40h30z" />
    <glyph glyph-name="paragraph" unicode="&#xb6;" horiz-adv-x="619" 
d="M391 0h-109v259h-60q-97 0 -146.5 48t-49.5 141v20q0 92 50 140t146 48h169v-656zM568 656v-656h-108v656h108z" />
    <glyph glyph-name="periodcentered" unicode="&#xb7;" horiz-adv-x="284" 
d="M91 229q-20 20 -20 51t20 50.5t51 19.5q32 0 51.5 -19.5t19.5 -50.5t-19.5 -51t-51.5 -20q-31 0 -51 20z" />
    <glyph glyph-name="cedilla" unicode="&#xb8;" horiz-adv-x="600" 
d="M380 1l-45 -171h-116l50 191z" />
    <glyph glyph-name="uni00B9" unicode="&#xb9;" horiz-adv-x="333" 
d="M138 431v214q-20 -6 -41 -6h-68v89h73q36 0 36 28h98v-325h93v-88h-300v88h109z" />
    <glyph glyph-name="ordmasculine" unicode="&#xba;" horiz-adv-x="366" 
d="M65 273.5q-41 38.5 -41 110.5v131q0 71 41 109.5t118 38.5q76 0 117 -38.5t41 -109.5v-131q0 -72 -41 -110.5t-117 -38.5q-77 0 -118 38.5zM226.5 344q15.5 16 15.5 45v122q0 28 -15.5 43.5t-43.5 15.5t-44 -15.5t-16 -43.5v-122q0 -29 15.5 -45t44.5 -16q28 0 43.5 16z
" />
    <glyph glyph-name="guillemotright" unicode="&#xbb;" horiz-adv-x="544" 
d="M163 277l-106 206v16h117l109 -213v-17l-109 -213h-117v17zM369 277l-106 206v16h117l109 -213v-17l-109 -213h-117v17z" />
    <glyph glyph-name="onequarter" unicode="&#xbc;" horiz-adv-x="952" 
d="M138 331v214q-20 -6 -41 -6h-68v89h73q36 0 36 28h98v-325h93v-88h-300v88h109zM679 656h98v-17l-457 -639h-97v16zM635 78v88q36 104 46 248h96v-14q-10 -134 -41 -234h76v177h93v-177h43v-88h-43v-78h-93v78h-177z" />
    <glyph glyph-name="onehalf" unicode="&#xbd;" horiz-adv-x="959" 
d="M138 331v214q-20 -6 -41 -6h-68v89h73q36 0 36 28h98v-325h93v-88h-300v88h109zM679 656h98v-17l-457 -639h-97v16zM766 196q38 40 51.5 59t13.5 34v7q0 17 -11.5 27t-30.5 10q-21 0 -32.5 -10t-11.5 -27v-14h-94v17q0 59 36.5 91t103.5 32t101.5 -29.5t34.5 -87.5v-7
q0 -34 -18 -67t-61 -78l-62 -65h150v-88h-274v88z" />
    <glyph glyph-name="threequarters" unicode="&#xbe;" horiz-adv-x="918" 
d="M57.5 267.5q-39.5 32.5 -39.5 87.5v18h95v-11q0 -17 13.5 -27.5t35.5 -10.5q23 0 35.5 10.5t12.5 29.5v21q0 36 -55 36h-68v59l92 88h-149v89h266v-89l-71 -69l7 -2q39 -10 56.5 -34t17.5 -65v-42q0 -55 -39 -88t-104 -33q-66 0 -105.5 32.5zM645 656h98v-17l-457 -639
h-97v16zM601 78v88q36 104 46 248h96v-14q-10 -134 -41 -234h76v177h93v-177h43v-88h-43v-78h-93v78h-177z" />
    <glyph glyph-name="questiondown" unicode="&#xbf;" horiz-adv-x="421" 
d="M173 390.5q-19 19.5 -19 50.5t19 50.5t50 19.5t51 -19.5t20 -50.5t-20 -50.5t-51 -19.5t-50 19.5zM82.5 -139q-46.5 43 -46.5 115v18q0 43 16 77t55 75q30 31 43.5 51t17 35t3.5 39v40h107v-48q0 -50 -16 -86t-66 -85q-27 -27 -37.5 -48t-10.5 -48v-13q0 -27 17.5 -44.5
t46.5 -17.5q32 0 49 18t17 52v39h110v-41q0 -82 -46.5 -126.5t-131.5 -44.5q-81 0 -127.5 43z" />
    <glyph glyph-name="Agrave" unicode="&#xc0;" horiz-adv-x="499" 
d="M481 17v-17h-118l-29 127h-167l-30 -127h-118v17l163 639h137zM310 231l-60 257l-59 -257h119zM111 873l278 -62v-100l-278 63v99z" />
    <glyph glyph-name="Aacute" unicode="&#xc1;" horiz-adv-x="499" 
d="M481 17v-17h-118l-29 127h-167l-30 -127h-118v17l163 639h137zM310 231l-60 257l-59 -257h119zM389 873v-99l-278 -63v100z" />
    <glyph glyph-name="Acircumflex" unicode="&#xc2;" horiz-adv-x="499" 
d="M481 17v-17h-118l-29 127h-167l-30 -127h-118v17l163 639h137zM310 231l-60 257l-59 -257h119zM249 874l140 -59v-103l-140 59l-138 -59v103z" />
    <glyph glyph-name="Atilde" unicode="&#xc3;" horiz-adv-x="499" 
d="M481 17v-17h-118l-29 127h-167l-30 -127h-118v17l163 639h137zM310 231l-60 257l-59 -257h119zM252 744q-42 14 -66 14q-38 0 -75 -22v97q37 23 76 23q16 0 33.5 -4.5t33.5 -9.5q22 -7 37 -10.5t32 -3.5q35 0 66 16v-98q-32 -17 -66 -17q-28 0 -71 15z" />
    <glyph glyph-name="Adieresis" unicode="&#xc4;" horiz-adv-x="499" 
d="M481 17v-17h-118l-29 127h-167l-30 -127h-118v17l163 639h137zM310 231l-60 257l-59 -257h119zM111.5 745q-18.5 18 -18.5 47t18 47t47 18t47 -17.5t18 -47.5t-18 -47.5t-47 -17.5q-28 0 -46.5 18zM294 744.5q-18 17.5 -18 47.5t18 47.5t47 17.5t47 -18t18 -47t-18 -47
t-47 -18t-47 17.5z" />
    <glyph glyph-name="Aring" unicode="&#xc5;" horiz-adv-x="499" 
d="M481 17v-17h-118l-29 127h-167l-30 -127h-118v17l163 639h137zM310 231l-60 257l-59 -257h119zM159.5 656.5q-34.5 32.5 -34.5 85.5t34.5 86t89.5 33q56 0 90.5 -33t34.5 -86t-34.5 -85.5t-90.5 -32.5q-55 0 -89.5 32.5zM281 710.5q12 12.5 12 31.5t-12 31t-31 12
q-18 0 -30.5 -12t-12.5 -31q0 -20 12 -32t31 -12t31 12.5z" />
    <glyph glyph-name="AE" unicode="&#xc6;" horiz-adv-x="657" 
d="M388 549l20 -168h202v-106h-189l20 -169h189v-106h-291l-15 127h-163l-31 -127h-111v17l161 639h450v-107h-242zM274 549h-11l-77 -318h126z" />
    <glyph glyph-name="Ccedilla" unicode="&#xc7;" horiz-adv-x="502" 
d="M105 39.5q-56 51.5 -56 140.5v296q0 89 56 140.5t152 51.5q206 0 206 -216v-61h-116v61q0 56 -22 83t-69 27q-44 0 -67.5 -24.5t-23.5 -70.5v-279q0 -46 23.5 -70t67.5 -24q91 0 91 105v61h116v-61q0 -105 -52 -158t-154 -53q-96 0 -152 51.5zM316 1l-45 -171h-116
l50 191z" />
    <glyph glyph-name="Egrave" unicode="&#xc8;" horiz-adv-x="429" 
d="M402 656v-106h-235v-170h218v-105h-218v-169h235v-106h-351v656h351zM87 873l278 -62v-100l-278 63v99z" />
    <glyph glyph-name="Eacute" unicode="&#xc9;" horiz-adv-x="429" 
d="M402 656v-106h-235v-170h218v-105h-218v-169h235v-106h-351v656h351zM365 873v-99l-278 -63v100z" />
    <glyph glyph-name="Ecircumflex" unicode="&#xca;" horiz-adv-x="429" 
d="M402 656v-106h-235v-170h218v-105h-218v-169h235v-106h-351v656h351zM225 874l140 -59v-103l-140 59l-138 -59v103z" />
    <glyph glyph-name="Edieresis" unicode="&#xcb;" horiz-adv-x="429" 
d="M402 656v-106h-235v-170h218v-105h-218v-169h235v-106h-351v656h351zM87.5 745q-18.5 18 -18.5 47t18 47t47 18t47 -17.5t18 -47.5t-18 -47.5t-47 -17.5q-28 0 -46.5 18zM270 744.5q-18 17.5 -18 47.5t18 47.5t47 17.5t47 -18t18 -47t-18 -47t-47 -18t-47 17.5z" />
    <glyph glyph-name="Igrave" unicode="&#xcc;" horiz-adv-x="220" 
d="M168 656v-656h-116v656h116zM-1 865l223 -47v-98l-223 46v99z" />
    <glyph glyph-name="Iacute" unicode="&#xcd;" horiz-adv-x="220" 
d="M168 656v-656h-116v656h116zM222 865v-99l-223 -46v98z" />
    <glyph glyph-name="Icircumflex" unicode="&#xce;" horiz-adv-x="220" 
d="M168 656v-656h-116v656h116zM109 873l113 -48v-103l-113 48l-110 -48v103z" />
    <glyph glyph-name="Idieresis" unicode="&#xcf;" horiz-adv-x="220" 
d="M168 656v-656h-116v656h116zM-28.5 745q-18.5 18 -18.5 47t18 47t47 18t47 -17.5t18 -47.5t-18 -47.5t-47 -17.5q-28 0 -46.5 18zM154 744.5q-18 17.5 -18 47.5t18 47.5t47 17.5t47 -18t18 -47t-18 -47t-47 -18t-47 17.5z" />
    <glyph glyph-name="Eth" unicode="&#xd0;" horiz-adv-x="510" 
d="M405.5 603.5q55.5 -52.5 55.5 -146.5v-259q0 -93 -55.5 -145.5t-154.5 -52.5h-187v277h-59v102h59v277h187q99 0 154.5 -52.5zM346 452q0 48 -23.5 73t-67.5 25h-75v-171h91v-102h-91v-171h75q44 0 67.5 25t23.5 73v248z" />
    <glyph glyph-name="Ntilde" unicode="&#xd1;" horiz-adv-x="499" 
d="M448 656v-656h-123l-163 412v-412h-111v656h123l163 -418v418h111zM251 744q-42 14 -66 14q-38 0 -75 -22v97q37 23 76 23q16 0 33.5 -4.5t33.5 -9.5q22 -7 37 -10.5t32 -3.5q35 0 66 16v-98q-32 -17 -66 -17q-28 0 -71 15z" />
    <glyph glyph-name="Ograve" unicode="&#xd2;" horiz-adv-x="512" 
d="M104.5 39.5q-55.5 51.5 -55.5 140.5v296q0 88 56 140t151 52q96 0 151.5 -52t55.5 -140v-296q0 -89 -55.5 -140.5t-151.5 -51.5t-151.5 51.5zM324 118.5q24 24.5 24 69.5v279q0 46 -24 70.5t-68 24.5t-67.5 -24.5t-23.5 -70.5v-279q0 -45 23.5 -69.5t67.5 -24.5t68 24.5z
M117 873l278 -62v-100l-278 63v99z" />
    <glyph glyph-name="Oacute" unicode="&#xd3;" horiz-adv-x="512" 
d="M104.5 39.5q-55.5 51.5 -55.5 140.5v296q0 88 56 140t151 52q96 0 151.5 -52t55.5 -140v-296q0 -89 -55.5 -140.5t-151.5 -51.5t-151.5 51.5zM324 118.5q24 24.5 24 69.5v279q0 46 -24 70.5t-68 24.5t-67.5 -24.5t-23.5 -70.5v-279q0 -45 23.5 -69.5t67.5 -24.5t68 24.5z
M395 873v-99l-278 -63v100z" />
    <glyph glyph-name="Ocircumflex" unicode="&#xd4;" horiz-adv-x="512" 
d="M104.5 39.5q-55.5 51.5 -55.5 140.5v296q0 88 56 140t151 52q96 0 151.5 -52t55.5 -140v-296q0 -89 -55.5 -140.5t-151.5 -51.5t-151.5 51.5zM324 118.5q24 24.5 24 69.5v279q0 46 -24 70.5t-68 24.5t-67.5 -24.5t-23.5 -70.5v-279q0 -45 23.5 -69.5t67.5 -24.5t68 24.5z
M255 874l140 -59v-103l-140 59l-138 -59v103z" />
    <glyph glyph-name="Otilde" unicode="&#xd5;" horiz-adv-x="512" 
d="M104.5 39.5q-55.5 51.5 -55.5 140.5v296q0 88 56 140t151 52q96 0 151.5 -52t55.5 -140v-296q0 -89 -55.5 -140.5t-151.5 -51.5t-151.5 51.5zM324 118.5q24 24.5 24 69.5v279q0 46 -24 70.5t-68 24.5t-67.5 -24.5t-23.5 -70.5v-279q0 -45 23.5 -69.5t67.5 -24.5t68 24.5z
M258 744q-42 14 -66 14q-38 0 -75 -22v97q37 23 76 23q16 0 33.5 -4.5t33.5 -9.5q22 -7 37 -10.5t32 -3.5q35 0 66 16v-98q-32 -17 -66 -17q-28 0 -71 15z" />
    <glyph glyph-name="Odieresis" unicode="&#xd6;" horiz-adv-x="512" 
d="M104.5 39.5q-55.5 51.5 -55.5 140.5v296q0 88 56 140t151 52q96 0 151.5 -52t55.5 -140v-296q0 -89 -55.5 -140.5t-151.5 -51.5t-151.5 51.5zM324 118.5q24 24.5 24 69.5v279q0 46 -24 70.5t-68 24.5t-67.5 -24.5t-23.5 -70.5v-279q0 -45 23.5 -69.5t67.5 -24.5t68 24.5z
M117.5 745q-18.5 18 -18.5 47t18 47t47 18t47 -17.5t18 -47.5t-18 -47.5t-47 -17.5q-28 0 -46.5 18zM300 744.5q-18 17.5 -18 47.5t18 47.5t47 17.5t47 -18t18 -47t-18 -47t-47 -18t-47 17.5z" />
    <glyph glyph-name="multiply" unicode="&#xd7;" horiz-adv-x="490" 
d="M319 328l123 -123l-75 -75l-123 123l-122 -122l-76 75l123 122l-123 123l75 75l123 -123l123 123l76 -75z" />
    <glyph glyph-name="Oslash" unicode="&#xd8;" horiz-adv-x="512" 
d="M463 476v-296q0 -88 -56 -140t-151 -52q-26 0 -56 5l-20 -61h-109v19l31 91q-53 51 -53 138v296q0 88 56 140t151 52q30 0 57 -6l21 62h108v-18l-31 -93q52 -54 52 -137zM159 189q0 -8 1 -13l126 384q-14 3 -30 3q-46 0 -71.5 -25t-25.5 -71v-278zM353 467v11l-126 -382
q14 -3 29 -3q47 0 72 25t25 71v278z" />
    <glyph glyph-name="Ugrave" unicode="&#xd9;" horiz-adv-x="495" 
d="M101 36q-50 48 -50 141v479h116v-478q0 -84 81 -84q80 0 80 84v478h116v-479q0 -94 -49.5 -141.5t-146.5 -47.5t-147 48zM113 873l278 -62v-100l-278 63v99z" />
    <glyph glyph-name="Uacute" unicode="&#xda;" horiz-adv-x="495" 
d="M101 36q-50 48 -50 141v479h116v-478q0 -84 81 -84q80 0 80 84v478h116v-479q0 -94 -49.5 -141.5t-146.5 -47.5t-147 48zM391 873v-99l-278 -63v100z" />
    <glyph glyph-name="Ucircumflex" unicode="&#xdb;" horiz-adv-x="495" 
d="M101 36q-50 48 -50 141v479h116v-478q0 -84 81 -84q80 0 80 84v478h116v-479q0 -94 -49.5 -141.5t-146.5 -47.5t-147 48zM251 874l140 -59v-103l-140 59l-138 -59v103z" />
    <glyph glyph-name="Udieresis" unicode="&#xdc;" horiz-adv-x="495" 
d="M101 36q-50 48 -50 141v479h116v-478q0 -84 81 -84q80 0 80 84v478h116v-479q0 -94 -49.5 -141.5t-146.5 -47.5t-147 48zM113.5 745q-18.5 18 -18.5 47t18 47t47 18t47 -17.5t18 -47.5t-18 -47.5t-47 -17.5q-28 0 -46.5 18zM296 744.5q-18 17.5 -18 47.5t18 47.5t47 17.5
t47 -18t18 -47t-18 -47t-47 -18t-47 17.5z" />
    <glyph glyph-name="Yacute" unicode="&#xdd;" horiz-adv-x="454" 
d="M443 639l-158 -380v-259h-116v257l-158 382v17h113l103 -255l102 255h114v-17zM366 873v-99l-278 -63v100z" />
    <glyph glyph-name="Thorn" unicode="&#xde;" horiz-adv-x="482" 
d="M405.5 478q50.5 -48 50.5 -140v-20q0 -93 -50 -141t-146 -48h-93v-129h-116v656h116v-130h93q95 0 145.5 -48zM340 338q0 82 -89 82h-84v-185h84q43 0 66 19.5t23 63.5v20z" />
    <glyph glyph-name="germandbls" unicode="&#xdf;" horiz-adv-x="468" 
d="M421.5 295.5q20.5 -37.5 20.5 -87.5v-45q0 -79 -47.5 -121t-138.5 -42h-40v102h30q41 0 62.5 20t21.5 58v38q0 37 -22.5 56t-65.5 19h-26v102h14q36 0 55 21t19 61v49q0 35 -19 55.5t-53 20.5t-53 -20t-19 -56v-526h-112v531q0 83 49 130t135 47q85 0 134 -47.5
t49 -129.5v-45q0 -91 -53 -133q39 -20 59.5 -57.5z" />
    <glyph glyph-name="agrave" unicode="&#xe0;" horiz-adv-x="462" 
d="M457 102v-102h-50q-64 0 -96 34q-42 -46 -122 -46q-74 0 -116 38.5t-42 106.5q0 62 38.5 99t117.5 51l94 16v42q0 32 -17 49t-49 17q-34 0 -51.5 -18.5t-17.5 -54.5v-10h-111v10q0 87 45.5 132t131.5 45q88 0 134 -45t46 -131v-193q0 -40 36 -40h29zM247 96.5
q22 12.5 34 33.5v77l-68 -11q-34 -5 -53 -21.5t-19 -39.5q0 -24 15.5 -37.5t43.5 -13.5q25 0 47 12.5zM83 716l278 -62v-100l-278 63v99z" />
    <glyph glyph-name="aacute" unicode="&#xe1;" horiz-adv-x="462" 
d="M457 102v-102h-50q-64 0 -96 34q-42 -46 -122 -46q-74 0 -116 38.5t-42 106.5q0 62 38.5 99t117.5 51l94 16v42q0 32 -17 49t-49 17q-34 0 -51.5 -18.5t-17.5 -54.5v-10h-111v10q0 87 45.5 132t131.5 45q88 0 134 -45t46 -131v-193q0 -40 36 -40h29zM247 96.5
q22 12.5 34 33.5v77l-68 -11q-34 -5 -53 -21.5t-19 -39.5q0 -24 15.5 -37.5t43.5 -13.5q25 0 47 12.5zM361 716v-99l-278 -63v100z" />
    <glyph glyph-name="acircumflex" unicode="&#xe2;" horiz-adv-x="462" 
d="M457 102v-102h-50q-64 0 -96 34q-42 -46 -122 -46q-74 0 -116 38.5t-42 106.5q0 62 38.5 99t117.5 51l94 16v42q0 32 -17 49t-49 17q-34 0 -51.5 -18.5t-17.5 -54.5v-10h-111v10q0 87 45.5 132t131.5 45q88 0 134 -45t46 -131v-193q0 -40 36 -40h29zM247 96.5
q22 12.5 34 33.5v77l-68 -11q-34 -5 -53 -21.5t-19 -39.5q0 -24 15.5 -37.5t43.5 -13.5q25 0 47 12.5zM221 717l140 -59v-103l-140 59l-138 -59v103z" />
    <glyph glyph-name="atilde" unicode="&#xe3;" horiz-adv-x="462" 
d="M457 102v-102h-50q-64 0 -96 34q-42 -46 -122 -46q-74 0 -116 38.5t-42 106.5q0 62 38.5 99t117.5 51l94 16v42q0 32 -17 49t-49 17q-34 0 -51.5 -18.5t-17.5 -54.5v-10h-111v10q0 87 45.5 132t131.5 45q88 0 134 -45t46 -131v-193q0 -40 36 -40h29zM247 96.5
q22 12.5 34 33.5v77l-68 -11q-34 -5 -53 -21.5t-19 -39.5q0 -24 15.5 -37.5t43.5 -13.5q25 0 47 12.5zM224 587q-42 14 -66 14q-38 0 -75 -22v97q37 23 76 23q16 0 33.5 -4.5t33.5 -9.5q22 -7 37 -10.5t32 -3.5q35 0 66 16v-98q-32 -17 -66 -17q-28 0 -71 15z" />
    <glyph glyph-name="adieresis" unicode="&#xe4;" horiz-adv-x="462" 
d="M457 102v-102h-50q-64 0 -96 34q-42 -46 -122 -46q-74 0 -116 38.5t-42 106.5q0 62 38.5 99t117.5 51l94 16v42q0 32 -17 49t-49 17q-34 0 -51.5 -18.5t-17.5 -54.5v-10h-111v10q0 87 45.5 132t131.5 45q88 0 134 -45t46 -131v-193q0 -40 36 -40h29zM247 96.5
q22 12.5 34 33.5v77l-68 -11q-34 -5 -53 -21.5t-19 -39.5q0 -24 15.5 -37.5t43.5 -13.5q25 0 47 12.5zM83.5 588q-18.5 18 -18.5 47t18 47t47 18t47 -17.5t18 -47.5t-18 -47.5t-47 -17.5q-28 0 -46.5 18zM266 587.5q-18 17.5 -18 47.5t18 47.5t47 17.5t47 -18t18 -47
t-18 -47t-47 -18t-47 17.5z" />
    <glyph glyph-name="aring" unicode="&#xe5;" horiz-adv-x="462" 
d="M457 102v-102h-50q-64 0 -96 34q-42 -46 -122 -46q-74 0 -116 38.5t-42 106.5q0 62 38.5 99t117.5 51l94 16v42q0 32 -17 49t-49 17q-34 0 -51.5 -18.5t-17.5 -54.5v-10h-111v10q0 87 45.5 132t131.5 45q88 0 134 -45t46 -131v-193q0 -40 36 -40h29zM247 96.5
q22 12.5 34 33.5v77l-68 -11q-34 -5 -53 -21.5t-19 -39.5q0 -24 15.5 -37.5t43.5 -13.5q25 0 47 12.5zM132.5 573.5q-34.5 32.5 -34.5 85.5t34.5 86t89.5 33q56 0 90.5 -33t34.5 -86t-34.5 -85.5t-90.5 -32.5q-55 0 -89.5 32.5zM254 627.5q12 12.5 12 31.5t-12 31t-31 12
q-18 0 -30.5 -12t-12.5 -31q0 -20 12 -32t31 -12t31 12.5z" />
    <glyph glyph-name="ae" unicode="&#xe6;" horiz-adv-x="695" 
d="M402 213v-52q0 -31 20 -49.5t53 -18.5q32 0 50.5 18.5t18.5 50.5h111q-2 -84 -49 -129t-131 -45q-97 0 -147 52q-24 -25 -58.5 -38.5t-76.5 -13.5q-75 0 -118.5 38.5t-43.5 105.5q0 126 156 151l93 15v44q0 31 -17.5 48t-48.5 17q-69 0 -69 -73v-10h-110v10
q0 87 43.5 132t128.5 45q94 0 139 -57q24 27 59 42t77 15q77 0 125 -47.5t48 -124.5v-126h-253zM421.5 387.5q-19.5 -19.5 -19.5 -51.5v-32h142v32q0 32 -19.5 51.5t-52.5 19.5q-31 0 -50.5 -19.5zM249 97q22 13 33 36q-2 22 -2 34v40l-70 -11q-34 -5 -51.5 -20.5
t-17.5 -39.5q0 -25 15.5 -38.5t43.5 -13.5q27 0 49 13z" />
    <glyph glyph-name="ccedilla" unicode="&#xe7;" horiz-adv-x="442" 
d="M88.5 33q-48.5 45 -48.5 126v180q0 82 48 127t135 45q86 0 134 -45t48 -127v-46h-112v42q0 32 -19 51.5t-51 19.5t-51.5 -19.5t-19.5 -51.5v-171q0 -32 19.5 -51t51.5 -19t51 19t19 51v38h112v-43q0 -81 -48 -126t-134 -45t-134.5 45zM276 1l-45 -171h-116l50 191z" />
    <glyph glyph-name="egrave" unicode="&#xe8;" 
d="M151 213v-56q0 -29 19.5 -47t52.5 -18q34 0 53 19t19 51h111q-2 -84 -49.5 -129t-133.5 -45q-87 0 -135 45t-48 126v180q0 82 48 127t135 45t135 -45t48 -127v-126h-255zM171 389q-20 -18 -20 -48v-36h144v36q0 30 -19.5 48t-52.5 18q-32 0 -52 -18zM84 716l278 -62v-100
l-278 63v99z" />
    <glyph glyph-name="eacute" unicode="&#xe9;" 
d="M151 213v-56q0 -29 19.5 -47t52.5 -18q34 0 53 19t19 51h111q-2 -84 -49.5 -129t-133.5 -45q-87 0 -135 45t-48 126v180q0 82 48 127t135 45t135 -45t48 -127v-126h-255zM171 389q-20 -18 -20 -48v-36h144v36q0 30 -19.5 48t-52.5 18q-32 0 -52 -18zM362 716v-99
l-278 -63v100z" />
    <glyph glyph-name="ecircumflex" unicode="&#xea;" 
d="M151 213v-56q0 -29 19.5 -47t52.5 -18q34 0 53 19t19 51h111q-2 -84 -49.5 -129t-133.5 -45q-87 0 -135 45t-48 126v180q0 82 48 127t135 45t135 -45t48 -127v-126h-255zM171 389q-20 -18 -20 -48v-36h144v36q0 30 -19.5 48t-52.5 18q-32 0 -52 -18zM222 717l140 -59
v-103l-140 59l-138 -59v103z" />
    <glyph glyph-name="edieresis" unicode="&#xeb;" 
d="M151 213v-56q0 -29 19.5 -47t52.5 -18q34 0 53 19t19 51h111q-2 -84 -49.5 -129t-133.5 -45q-87 0 -135 45t-48 126v180q0 82 48 127t135 45t135 -45t48 -127v-126h-255zM171 389q-20 -18 -20 -48v-36h144v36q0 30 -19.5 48t-52.5 18q-32 0 -52 -18zM84.5 588
q-18.5 18 -18.5 47t18 47t47 18t47 -17.5t18 -47.5t-18 -47.5t-47 -17.5q-28 0 -46.5 18zM267 587.5q-18 17.5 -18 47.5t18 47.5t47 17.5t47 -18t18 -47t-18 -47t-47 -18t-47 17.5z" />
    <glyph glyph-name="igrave" unicode="&#xec;" horiz-adv-x="210" 
d="M160 499v-499h-111v499h111zM-6 708l223 -47v-98l-223 46v99z" />
    <glyph glyph-name="iacute" unicode="&#xed;" horiz-adv-x="210" 
d="M160 499v-499h-111v499h111zM217 708v-99l-223 -46v98z" />
    <glyph glyph-name="icircumflex" unicode="&#xee;" horiz-adv-x="210" 
d="M160 499v-499h-111v499h111zM104 716l113 -48v-103l-113 48l-110 -48v103z" />
    <glyph glyph-name="idieresis" unicode="&#xef;" horiz-adv-x="210" 
d="M160 499v-499h-111v499h111zM-27 588q-18 18 -18 47t18 47t47 18q30 0 47.5 -17.5t17.5 -47.5q0 -29 -17.5 -47t-47.5 -18q-29 0 -47 18zM142 588q-18 18 -18 47t18 47t47 18q30 0 48.5 -17.5t18.5 -47.5q0 -29 -18.5 -47t-48.5 -18q-29 0 -47 18z" />
    <glyph glyph-name="eth" unicode="&#xf0;" horiz-adv-x="450" 
d="M414 587l-73 -12q36 -45 51.5 -96.5t15.5 -126.5v-186q0 -85 -47.5 -131.5t-135.5 -46.5q-89 0 -137 46.5t-48 131.5v130q0 78 41.5 124t113.5 47q55 0 98 -30q-6 32 -21 58t-43 53l-178 -30v95l91 16l-59 55v16h127l49 -45l155 27v-95zM277.5 111q19.5 20 19.5 53v159
q-12 19 -31 30t-42 11q-34 0 -53 -20.5t-19 -56.5v-123q0 -34 19 -53.5t53 -19.5t53.5 20z" />
    <glyph glyph-name="ntilde" unicode="&#xf1;" horiz-adv-x="459" 
d="M372.5 468.5q40.5 -42.5 40.5 -118.5v-350h-111v331q0 36 -16.5 55.5t-53.5 19.5q-21 0 -40 -10.5t-32 -27.5v-368h-112v499h97l4 -30q21 20 49.5 31t60.5 11q73 0 113.5 -42.5zM233 587q-42 14 -66 14q-38 0 -75 -22v97q37 23 76 23q16 0 33.5 -4.5t33.5 -9.5
q22 -7 37 -10.5t32 -3.5q35 0 66 16v-98q-32 -17 -66 -17q-28 0 -71 15z" />
    <glyph glyph-name="ograve" unicode="&#xf2;" 
d="M89.5 31.5q-49.5 43.5 -49.5 127.5v180q0 84 49.5 128t133.5 44t133.5 -43.5t49.5 -128.5v-180q0 -84 -49.5 -127.5t-133.5 -43.5t-133.5 43.5zM274.5 112q19.5 18 19.5 52v171q0 34 -20 52.5t-51 18.5t-51 -18.5t-20 -52.5v-171q0 -33 20 -51.5t51 -18.5q32 0 51.5 18z
M84 716l278 -62v-100l-278 63v99z" />
    <glyph glyph-name="oacute" unicode="&#xf3;" 
d="M89.5 31.5q-49.5 43.5 -49.5 127.5v180q0 84 49.5 128t133.5 44t133.5 -43.5t49.5 -128.5v-180q0 -84 -49.5 -127.5t-133.5 -43.5t-133.5 43.5zM274.5 112q19.5 18 19.5 52v171q0 34 -20 52.5t-51 18.5t-51 -18.5t-20 -52.5v-171q0 -33 20 -51.5t51 -18.5q32 0 51.5 18z
M362 716v-99l-278 -63v100z" />
    <glyph glyph-name="ocircumflex" unicode="&#xf4;" 
d="M89.5 31.5q-49.5 43.5 -49.5 127.5v180q0 84 49.5 128t133.5 44t133.5 -43.5t49.5 -128.5v-180q0 -84 -49.5 -127.5t-133.5 -43.5t-133.5 43.5zM274.5 112q19.5 18 19.5 52v171q0 34 -20 52.5t-51 18.5t-51 -18.5t-20 -52.5v-171q0 -33 20 -51.5t51 -18.5q32 0 51.5 18z
M222 717l140 -59v-103l-140 59l-138 -59v103z" />
    <glyph glyph-name="otilde" unicode="&#xf5;" 
d="M89.5 31.5q-49.5 43.5 -49.5 127.5v180q0 84 49.5 128t133.5 44t133.5 -43.5t49.5 -128.5v-180q0 -84 -49.5 -127.5t-133.5 -43.5t-133.5 43.5zM274.5 112q19.5 18 19.5 52v171q0 34 -20 52.5t-51 18.5t-51 -18.5t-20 -52.5v-171q0 -33 20 -51.5t51 -18.5q32 0 51.5 18z
M225 587q-42 14 -66 14q-38 0 -75 -22v97q37 23 76 23q16 0 33.5 -4.5t33.5 -9.5q22 -7 37 -10.5t32 -3.5q35 0 66 16v-98q-32 -17 -66 -17q-28 0 -71 15z" />
    <glyph glyph-name="odieresis" unicode="&#xf6;" 
d="M89.5 31.5q-49.5 43.5 -49.5 127.5v180q0 84 49.5 128t133.5 44t133.5 -43.5t49.5 -128.5v-180q0 -84 -49.5 -127.5t-133.5 -43.5t-133.5 43.5zM274.5 112q19.5 18 19.5 52v171q0 34 -20 52.5t-51 18.5t-51 -18.5t-20 -52.5v-171q0 -33 20 -51.5t51 -18.5q32 0 51.5 18z
M84.5 588q-18.5 18 -18.5 47t18 47t47 18t47 -17.5t18 -47.5t-18 -47.5t-47 -17.5q-28 0 -46.5 18zM267 587.5q-18 17.5 -18 47.5t18 47.5t47 17.5t47 -18t18 -47t-18 -47t-47 -18t-47 17.5z" />
    <glyph glyph-name="divide" unicode="&#xf7;" horiz-adv-x="490" 
d="M194.5 471.5q-19.5 19.5 -19.5 50.5t19.5 50.5t50.5 19.5q32 0 51 -19t19 -51q0 -31 -19.5 -50.5t-50.5 -19.5t-50.5 19.5zM447 381v-106h-405v106h405zM194.5 83.5q-19.5 19.5 -19.5 50.5t19.5 50.5t50.5 19.5q32 0 51 -19t19 -51q0 -31 -19 -50.5t-51 -19.5
q-31 0 -50.5 19.5z" />
    <glyph glyph-name="oslash" unicode="&#xf8;" 
d="M407 339v-180q0 -81 -48 -126t-136 -45q-26 0 -45 4l-18 -47h-100v17l28 71q-48 45 -48 126v180q0 82 48 127t135 45q28 0 47 -4l17 46h100v-16l-27 -72q47 -44 47 -126zM165.5 391.5q-21.5 -21.5 -21.5 -56.5v-168l95 245q-5 1 -15 1q-37 0 -58.5 -21.5zM281.5 107.5
q21.5 20.5 21.5 55.5v167l-93 -242q4 -1 14 -1q36 0 57.5 20.5z" />
    <glyph glyph-name="ugrave" unicode="&#xf9;" horiz-adv-x="459" 
d="M411 499v-499h-97l-4 30q-21 -20 -49.5 -31t-60.5 -11q-73 0 -113.5 42.5t-40.5 118.5v350h111v-331q0 -36 16.5 -55.5t53.5 -19.5q21 0 40 10.5t32 27.5v368h112zM90 715l278 -62v-100l-278 63v99z" />
    <glyph glyph-name="uacute" unicode="&#xfa;" horiz-adv-x="459" 
d="M411 499v-499h-97l-4 30q-21 -20 -49.5 -31t-60.5 -11q-73 0 -113.5 42.5t-40.5 118.5v350h111v-331q0 -36 16.5 -55.5t53.5 -19.5q21 0 40 10.5t32 27.5v368h112zM368 715v-99l-278 -63v100z" />
    <glyph glyph-name="ucircumflex" unicode="&#xfb;" horiz-adv-x="459" 
d="M411 499v-499h-97l-4 30q-21 -20 -49.5 -31t-60.5 -11q-73 0 -113.5 42.5t-40.5 118.5v350h111v-331q0 -36 16.5 -55.5t53.5 -19.5q21 0 40 10.5t32 27.5v368h112zM228 716l140 -59v-103l-140 59l-138 -59v103z" />
    <glyph glyph-name="udieresis" unicode="&#xfc;" horiz-adv-x="459" 
d="M411 499v-499h-97l-4 30q-21 -20 -49.5 -31t-60.5 -11q-73 0 -113.5 42.5t-40.5 118.5v350h111v-331q0 -36 16.5 -55.5t53.5 -19.5q21 0 40 10.5t32 27.5v368h112zM90.5 587q-18.5 18 -18.5 47t18 47t47 18t47 -17.5t18 -47.5t-18 -47.5t-47 -17.5q-28 0 -46.5 18z
M273 586.5q-18 17.5 -18 47.5t18 47.5t47 17.5t47 -18t18 -47t-18 -47t-47 -18t-47 17.5z" />
    <glyph glyph-name="yacute" unicode="&#xfd;" horiz-adv-x="464" 
d="M448 499v-16l-171 -542q-19 -60 -54.5 -85.5t-98.5 -25.5h-62v103h51q25 0 37.5 9.5t19.5 34.5l8 28l-162 478v16h118l101 -333l95 333h118zM371 716v-99l-278 -63v100z" />
    <glyph glyph-name="thorn" unicode="&#xfe;" horiz-adv-x="454" 
d="M372.5 468.5q42.5 -42.5 42.5 -111.5v-215q0 -70 -43 -112t-114 -42q-56 0 -98 28v-186h-112v866h112v-216q42 31 101 31q69 0 111.5 -42.5zM303 331q0 35 -18.5 55t-52.5 20q-21 0 -40 -10.5t-32 -28.5v-235q13 -18 32 -28t40 -10q33 0 52 20t19 56v161z" />
    <glyph glyph-name="ydieresis" unicode="&#xff;" horiz-adv-x="464" 
d="M448 499v-16l-171 -542q-19 -60 -54.5 -85.5t-98.5 -25.5h-62v103h51q25 0 37.5 9.5t19.5 34.5l8 28l-162 478v16h118l101 -333l95 333h118zM93.5 588q-18.5 18 -18.5 47t18 47t47 18t47 -17.5t18 -47.5t-18 -47.5t-47 -17.5q-28 0 -46.5 18zM276 587.5
q-18 17.5 -18 47.5t18 47.5t47 17.5t47 -18t18 -47t-18 -47t-47 -18t-47 17.5z" />
    <glyph glyph-name="Amacron" unicode="&#x100;" horiz-adv-x="499" 
d="M481 17v-17h-118l-29 127h-167l-30 -127h-118v17l163 639h137zM310 231l-60 257l-59 -257h119zM389 841v-98h-278v98h278z" />
    <glyph glyph-name="amacron" unicode="&#x101;" horiz-adv-x="462" 
d="M457 102v-102h-50q-64 0 -96 34q-42 -46 -122 -46q-74 0 -116 38.5t-42 106.5q0 62 38.5 99t117.5 51l94 16v42q0 32 -17 49t-49 17q-34 0 -51.5 -18.5t-17.5 -54.5v-10h-111v10q0 87 45.5 132t131.5 45q88 0 134 -45t46 -131v-193q0 -40 36 -40h29zM247 96.5
q22 12.5 34 33.5v77l-68 -11q-34 -5 -53 -21.5t-19 -39.5q0 -24 15.5 -37.5t43.5 -13.5q25 0 47 12.5zM361 684v-98h-278v98h278z" />
    <glyph glyph-name="Abreve" unicode="&#x102;" horiz-adv-x="499" 
d="M481 17v-17h-118l-29 127h-167l-30 -127h-118v17l163 639h137zM310 231l-60 257l-59 -257h119zM111 765v100q28 -19 64 -30.5t77 -11.5q38 0 73.5 11t63.5 31v-100q-28 -19 -63 -30t-74 -11q-81 0 -141 41z" />
    <glyph glyph-name="abreve" unicode="&#x103;" horiz-adv-x="462" 
d="M457 102v-102h-50q-64 0 -96 34q-42 -46 -122 -46q-74 0 -116 38.5t-42 106.5q0 62 38.5 99t117.5 51l94 16v42q0 32 -17 49t-49 17q-34 0 -51.5 -18.5t-17.5 -54.5v-10h-111v10q0 87 45.5 132t131.5 45q88 0 134 -45t46 -131v-193q0 -40 36 -40h29zM247 96.5
q22 12.5 34 33.5v77l-68 -11q-34 -5 -53 -21.5t-19 -39.5q0 -24 15.5 -37.5t43.5 -13.5q25 0 47 12.5zM83 608v100q28 -19 64 -30.5t77 -11.5q38 0 73.5 11t63.5 31v-100q-28 -19 -63 -30t-74 -11q-81 0 -141 41z" />
    <glyph glyph-name="Aogonek" unicode="&#x104;" horiz-adv-x="499" 
d="M481 17v-17h-118l-29 127h-167l-30 -127h-118v17l163 639h137zM310 231l-60 257l-59 -257h119zM340.5 -146.5q-27.5 23.5 -27.5 58.5q0 24 13 45t44 48l76 66l35 -71l-51 -48q-10 -10 -10 -16q0 -12 21 -12h40v-94h-70q-43 0 -70.5 23.5z" />
    <glyph glyph-name="aogonek" unicode="&#x105;" horiz-adv-x="462" 
d="M457 102v-102h-50q-64 0 -96 34q-42 -46 -122 -46q-74 0 -116 38.5t-42 106.5q0 62 38.5 99t117.5 51l94 16v42q0 32 -17 49t-49 17q-34 0 -51.5 -18.5t-17.5 -54.5v-10h-111v10q0 87 45.5 132t131.5 45q88 0 134 -45t46 -131v-193q0 -40 36 -40h29zM247 96.5
q22 12.5 34 33.5v77l-68 -11q-34 -5 -53 -21.5t-19 -39.5q0 -24 15.5 -37.5t43.5 -13.5q25 0 47 12.5zM316.5 -146.5q-27.5 23.5 -27.5 58.5q0 24 13 45t44 48l76 66l35 -71l-51 -48q-10 -10 -10 -16q0 -12 21 -12h40v-94h-70q-43 0 -70.5 23.5z" />
    <glyph glyph-name="Cacute" unicode="&#x106;" horiz-adv-x="502" 
d="M105 39.5q-56 51.5 -56 140.5v296q0 89 56 140.5t152 51.5q206 0 206 -216v-61h-116v61q0 56 -22 83t-69 27q-44 0 -67.5 -24.5t-23.5 -70.5v-279q0 -46 23.5 -70t67.5 -24q91 0 91 105v61h116v-61q0 -105 -52 -158t-154 -53q-96 0 -152 51.5zM397 873v-99l-278 -63v100z
" />
    <glyph glyph-name="cacute" unicode="&#x107;" horiz-adv-x="442" 
d="M88.5 33q-48.5 45 -48.5 126v180q0 82 48 127t135 45q86 0 134 -45t48 -127v-46h-112v42q0 32 -19 51.5t-51 19.5t-51.5 -19.5t-19.5 -51.5v-171q0 -32 19.5 -51t51.5 -19t51 19t19 51v38h112v-43q0 -81 -48 -126t-134 -45t-134.5 45zM357 716v-99l-278 -63v100z" />
    <glyph glyph-name="Ccircumflex" unicode="&#x108;" horiz-adv-x="502" 
d="M105 39.5q-56 51.5 -56 140.5v296q0 89 56 140.5t152 51.5q206 0 206 -216v-61h-116v61q0 56 -22 83t-69 27q-44 0 -67.5 -24.5t-23.5 -70.5v-279q0 -46 23.5 -70t67.5 -24q91 0 91 105v61h116v-61q0 -105 -52 -158t-154 -53q-96 0 -152 51.5zM257 874l140 -59v-103
l-140 59l-138 -59v103z" />
    <glyph glyph-name="ccircumflex" unicode="&#x109;" horiz-adv-x="442" 
d="M88.5 33q-48.5 45 -48.5 126v180q0 82 48 127t135 45q86 0 134 -45t48 -127v-46h-112v42q0 32 -19 51.5t-51 19.5t-51.5 -19.5t-19.5 -51.5v-171q0 -32 19.5 -51t51.5 -19t51 19t19 51v38h112v-43q0 -81 -48 -126t-134 -45t-134.5 45zM217 717l140 -59v-103l-140 59
l-138 -59v103z" />
    <glyph glyph-name="Cdotaccent" unicode="&#x10a;" horiz-adv-x="502" 
d="M105 39.5q-56 51.5 -56 140.5v296q0 89 56 140.5t152 51.5q206 0 206 -216v-61h-116v61q0 56 -22 83t-69 27q-44 0 -67.5 -24.5t-23.5 -70.5v-279q0 -46 23.5 -70t67.5 -24q91 0 91 105v61h116v-61q0 -105 -52 -158t-154 -53q-96 0 -152 51.5zM205 739q-21 21 -21 53
q0 33 21 53.5t53 20.5q33 0 53.5 -20t20.5 -54q0 -32 -20.5 -53t-53.5 -21q-32 0 -53 21z" />
    <glyph glyph-name="cdotaccent" unicode="&#x10b;" horiz-adv-x="442" 
d="M88.5 33q-48.5 45 -48.5 126v180q0 82 48 127t135 45q86 0 134 -45t48 -127v-46h-112v42q0 32 -19 51.5t-51 19.5t-51.5 -19.5t-19.5 -51.5v-171q0 -32 19.5 -51t51.5 -19t51 19t19 51v38h112v-43q0 -81 -48 -126t-134 -45t-134.5 45zM165 582q-21 21 -21 53
q0 33 21 53.5t53 20.5q33 0 53.5 -20t20.5 -54q0 -32 -20.5 -53t-53.5 -21q-32 0 -53 21z" />
    <glyph glyph-name="Ccaron" unicode="&#x10c;" horiz-adv-x="502" 
d="M105 39.5q-56 51.5 -56 140.5v296q0 89 56 140.5t152 51.5q206 0 206 -216v-61h-116v61q0 56 -22 83t-69 27q-44 0 -67.5 -24.5t-23.5 -70.5v-279q0 -46 23.5 -70t67.5 -24q91 0 91 105v61h116v-61q0 -105 -52 -158t-154 -53q-96 0 -152 51.5zM119 873l138 -58l140 58
v-103l-140 -58l-138 58v103z" />
    <glyph glyph-name="ccaron" unicode="&#x10d;" horiz-adv-x="442" 
d="M88.5 33q-48.5 45 -48.5 126v180q0 82 48 127t135 45q86 0 134 -45t48 -127v-46h-112v42q0 32 -19 51.5t-51 19.5t-51.5 -19.5t-19.5 -51.5v-171q0 -32 19.5 -51t51.5 -19t51 19t19 51v38h112v-43q0 -81 -48 -126t-134 -45t-134.5 45zM79 716l138 -58l140 58v-103
l-140 -58l-138 58v103z" />
    <glyph glyph-name="Dcaron" unicode="&#x10e;" horiz-adv-x="497" 
d="M238 656q99 0 154.5 -52.5t55.5 -146.5v-259q0 -93 -55.5 -145.5t-154.5 -52.5h-187v656h187zM309.5 131q23.5 25 23.5 73v248q0 48 -23.5 73t-67.5 25h-75v-444h75q44 0 67.5 25zM76 873l138 -58l140 58v-103l-140 -58l-138 58v103z" />
    <glyph glyph-name="dcaron" unicode="&#x10f;" horiz-adv-x="624" 
d="M407 696v-696h-97l-3 23q-43 -35 -107 -35q-71 0 -115.5 44t-44.5 117v201q0 73 44 117t115 44q57 0 96 -30v215h112zM263 104q19 10 32 28v235q-13 18 -32 28.5t-40 10.5q-33 0 -52 -20t-19 -56v-160q0 -36 19 -56t52 -20q21 0 40 10zM615 696l-59 -187h-96l28 187h127z
" />
    <glyph glyph-name="Dcroat" unicode="&#x110;" horiz-adv-x="510" 
d="M405.5 603.5q55.5 -52.5 55.5 -146.5v-259q0 -93 -55.5 -145.5t-154.5 -52.5h-187v277h-59v102h59v277h187q99 0 154.5 -52.5zM346 452q0 48 -23.5 73t-67.5 25h-75v-171h91v-102h-91v-171h75q44 0 67.5 25t23.5 73v248z" />
    <glyph glyph-name="dcroat" unicode="&#x111;" horiz-adv-x="464" 
d="M465 552h-58v-552h-97l-3 23q-43 -35 -106 -35q-72 0 -116.5 44t-44.5 117v188q0 72 44 116.5t115 44.5q57 0 96 -30v84h-112v96h112v48h112v-48h58v-96zM263 104.5q19 10.5 32 28.5v221q-13 18 -32 28t-42 10q-32 0 -50.5 -20t-18.5 -55v-147q0 -36 19 -56t52 -20
q21 0 40 10.5z" />
    <glyph glyph-name="Emacron" unicode="&#x112;" horiz-adv-x="429" 
d="M402 656v-106h-235v-170h218v-105h-218v-169h235v-106h-351v656h351zM365 841v-98h-278v98h278z" />
    <glyph glyph-name="emacron" unicode="&#x113;" 
d="M151 213v-56q0 -29 19.5 -47t52.5 -18q34 0 53 19t19 51h111q-2 -84 -49.5 -129t-133.5 -45q-87 0 -135 45t-48 126v180q0 82 48 127t135 45t135 -45t48 -127v-126h-255zM171 389q-20 -18 -20 -48v-36h144v36q0 30 -19.5 48t-52.5 18q-32 0 -52 -18zM362 684v-98h-278v98
h278z" />
    <glyph glyph-name="Ebreve" unicode="&#x114;" horiz-adv-x="429" 
d="M402 656v-106h-235v-170h218v-105h-218v-169h235v-106h-351v656h351zM87 765v100q28 -19 64 -30.5t77 -11.5q38 0 73.5 11t63.5 31v-100q-28 -19 -63 -30t-74 -11q-81 0 -141 41z" />
    <glyph glyph-name="ebreve" unicode="&#x115;" 
d="M151 213v-56q0 -29 19.5 -47t52.5 -18q34 0 53 19t19 51h111q-2 -84 -49.5 -129t-133.5 -45q-87 0 -135 45t-48 126v180q0 82 48 127t135 45t135 -45t48 -127v-126h-255zM171 389q-20 -18 -20 -48v-36h144v36q0 30 -19.5 48t-52.5 18q-32 0 -52 -18zM84 608v100
q28 -19 64 -30.5t77 -11.5q38 0 73.5 11t63.5 31v-100q-28 -19 -63 -30t-74 -11q-81 0 -141 41z" />
    <glyph glyph-name="Edotaccent" unicode="&#x116;" horiz-adv-x="429" 
d="M402 656v-106h-235v-170h218v-105h-218v-169h235v-106h-351v656h351zM173 739q-21 21 -21 53q0 33 21 53.5t53 20.5q33 0 53.5 -20t20.5 -54q0 -32 -20.5 -53t-53.5 -21q-32 0 -53 21z" />
    <glyph glyph-name="edotaccent" unicode="&#x117;" 
d="M151 213v-56q0 -29 19.5 -47t52.5 -18q34 0 53 19t19 51h111q-2 -84 -49.5 -129t-133.5 -45q-87 0 -135 45t-48 126v180q0 82 48 127t135 45t135 -45t48 -127v-126h-255zM171 389q-20 -18 -20 -48v-36h144v36q0 30 -19.5 48t-52.5 18q-32 0 -52 -18zM170 582
q-21 21 -21 53q0 33 21 53.5t53 20.5q33 0 53.5 -20t20.5 -54q0 -32 -20.5 -53t-53.5 -21q-32 0 -53 21z" />
    <glyph glyph-name="Eogonek" unicode="&#x118;" horiz-adv-x="429" 
d="M402 656v-106h-235v-170h218v-105h-218v-169h235v-106h-351v656h351zM261.5 -146.5q-27.5 23.5 -27.5 58.5q0 24 13 45t44 48l76 66l35 -71l-51 -48q-10 -10 -10 -16q0 -12 21 -12h40v-94h-70q-43 0 -70.5 23.5z" />
    <glyph glyph-name="eogonek" unicode="&#x119;" 
d="M151 213v-56q0 -29 19.5 -47t52.5 -18q34 0 53 19t19 51h111q-2 -84 -49.5 -129t-133.5 -45q-87 0 -135 45t-48 126v180q0 82 48 127t135 45t135 -45t48 -127v-126h-255zM171 389q-20 -18 -20 -48v-36h144v36q0 30 -19.5 48t-52.5 18q-32 0 -52 -18zM206.5 -145.5
q-27.5 24.5 -27.5 63.5q0 23 13 45t40 50l57 59l79 -28l-66 -77q-7 -8 -11.5 -15t-4.5 -13q0 -7 6 -11t17 -4h38v-94h-69q-44 0 -71.5 24.5z" />
    <glyph glyph-name="Ecaron" unicode="&#x11a;" horiz-adv-x="429" 
d="M402 656v-106h-235v-170h218v-105h-218v-169h235v-106h-351v656h351zM87 873l138 -58l140 58v-103l-140 -58l-138 58v103z" />
    <glyph glyph-name="ecaron" unicode="&#x11b;" 
d="M151 213v-56q0 -29 19.5 -47t52.5 -18q34 0 53 19t19 51h111q-2 -84 -49.5 -129t-133.5 -45q-87 0 -135 45t-48 126v180q0 82 48 127t135 45t135 -45t48 -127v-126h-255zM171 389q-20 -18 -20 -48v-36h144v36q0 30 -19.5 48t-52.5 18q-32 0 -52 -18zM84 716l138 -58
l140 58v-103l-140 -58l-138 58v103z" />
    <glyph glyph-name="Gcircumflex" unicode="&#x11c;" horiz-adv-x="521" 
d="M354 432v36q0 44 -25 69t-69 25t-69.5 -25t-25.5 -68v-281q0 -45 24.5 -69t69.5 -24q63 0 97 46v109h-120v104h233v-354h-94l-4 29q-46 -41 -117 -41q-60 0 -106.5 24t-72.5 68t-26 100v296q0 89 56.5 140.5t154.5 51.5q100 0 155 -52t55 -148v-36h-116zM259 874l140 -59
v-103l-140 59l-138 -59v103z" />
    <glyph glyph-name="gcircumflex" unicode="&#x11d;" horiz-adv-x="454" 
d="M407 499v-509q0 -83 -48 -127.5t-137 -44.5t-136.5 45t-47.5 130v10h112v-10q0 -34 17 -52t57 -18q34 0 52.5 17t18.5 50v73q-42 -33 -97 -33q-73 0 -116 44.5t-43 118.5v164q0 70 43.5 112t117.5 42q67 0 106 -39l4 27h97zM263.5 143.5q18.5 10.5 31.5 29.5v193
q-13 19 -31.5 29.5t-38.5 10.5q-34 0 -54 -21t-20 -58v-115q0 -37 20 -58t54 -21q20 0 38.5 10.5zM218 717l140 -59v-103l-140 59l-138 -59v103z" />
    <glyph glyph-name="Gbreve" unicode="&#x11e;" horiz-adv-x="521" 
d="M354 432v36q0 44 -25 69t-69 25t-69.5 -25t-25.5 -68v-281q0 -45 24.5 -69t69.5 -24q63 0 97 46v109h-120v104h233v-354h-94l-4 29q-46 -41 -117 -41q-60 0 -106.5 24t-72.5 68t-26 100v296q0 89 56.5 140.5t154.5 51.5q100 0 155 -52t55 -148v-36h-116zM121 765v100
q28 -19 64 -30.5t77 -11.5q38 0 73.5 11t63.5 31v-100q-28 -19 -63 -30t-74 -11q-81 0 -141 41z" />
    <glyph glyph-name="gbreve" unicode="&#x11f;" horiz-adv-x="454" 
d="M407 499v-509q0 -83 -48 -127.5t-137 -44.5t-136.5 45t-47.5 130v10h112v-10q0 -34 17 -52t57 -18q34 0 52.5 17t18.5 50v73q-42 -33 -97 -33q-73 0 -116 44.5t-43 118.5v164q0 70 43.5 112t117.5 42q67 0 106 -39l4 27h97zM263.5 143.5q18.5 10.5 31.5 29.5v193
q-13 19 -31.5 29.5t-38.5 10.5q-34 0 -54 -21t-20 -58v-115q0 -37 20 -58t54 -21q20 0 38.5 10.5zM80 608v100q28 -19 64 -30.5t77 -11.5q38 0 73.5 11t63.5 31v-100q-28 -19 -63 -30t-74 -11q-81 0 -141 41z" />
    <glyph glyph-name="Gdotaccent" unicode="&#x120;" horiz-adv-x="521" 
d="M354 432v36q0 44 -25 69t-69 25t-69.5 -25t-25.5 -68v-281q0 -45 24.5 -69t69.5 -24q63 0 97 46v109h-120v104h233v-354h-94l-4 29q-46 -41 -117 -41q-60 0 -106.5 24t-72.5 68t-26 100v296q0 89 56.5 140.5t154.5 51.5q100 0 155 -52t55 -148v-36h-116zM207 739
q-21 21 -21 53q0 33 21 53.5t53 20.5q33 0 53.5 -20t20.5 -54q0 -32 -20.5 -53t-53.5 -21q-32 0 -53 21z" />
    <glyph glyph-name="gdotaccent" unicode="&#x121;" horiz-adv-x="454" 
d="M407 499v-509q0 -83 -48 -127.5t-137 -44.5t-136.5 45t-47.5 130v10h112v-10q0 -34 17 -52t57 -18q34 0 52.5 17t18.5 50v73q-42 -33 -97 -33q-73 0 -116 44.5t-43 118.5v164q0 70 43.5 112t117.5 42q67 0 106 -39l4 27h97zM263.5 143.5q18.5 10.5 31.5 29.5v193
q-13 19 -31.5 29.5t-38.5 10.5q-34 0 -54 -21t-20 -58v-115q0 -37 20 -58t54 -21q20 0 38.5 10.5zM166 582q-21 21 -21 53q0 33 21 53.5t53 20.5q33 0 53.5 -20t20.5 -54q0 -32 -20.5 -53t-53.5 -21q-32 0 -53 21z" />
    <glyph glyph-name="uni0122" unicode="&#x122;" horiz-adv-x="521" 
d="M354 432v36q0 44 -25 69t-69 25t-69.5 -25t-25.5 -68v-281q0 -45 24.5 -69t69.5 -24q63 0 97 46v109h-120v104h233v-354h-94l-4 29q-46 -41 -117 -41q-60 0 -106.5 24t-72.5 68t-26 100v296q0 89 56.5 140.5t154.5 51.5q100 0 155 -52t55 -148v-36h-116zM315 -58
l-52 -163h-105l44 163h113z" />
    <glyph glyph-name="uni0123" unicode="&#x123;" horiz-adv-x="454" 
d="M407 499v-509q0 -83 -48 -127.5t-137 -44.5t-136.5 45t-47.5 130v10h112v-10q0 -34 17 -52t57 -18q34 0 52.5 17t18.5 50v73q-42 -33 -97 -33q-73 0 -116 44.5t-43 118.5v164q0 70 43.5 112t117.5 42q67 0 106 -39l4 27h97zM263.5 143.5q18.5 10.5 31.5 29.5v193
q-13 19 -31.5 29.5t-38.5 10.5q-34 0 -54 -21t-20 -58v-115q0 -37 20 -58t54 -21q20 0 38.5 10.5zM310 717l-44 -165h-118l54 165h108z" />
    <glyph glyph-name="Hcircumflex" unicode="&#x124;" horiz-adv-x="499" 
d="M167 656v-276h165v276h116v-656h-116v275h-165v-275h-116v656h116zM248 874l140 -59v-103l-140 59l-138 -59v103z" />
    <glyph glyph-name="hcircumflex" unicode="&#x125;" horiz-adv-x="459" 
d="M372 469q41 -42 41 -119v-350h-111v331q0 75 -70 75q-21 0 -40 -10.5t-32 -28.5v-367h-112v696h112v-218q42 33 99 33q72 0 113 -42zM103 884l140 -59v-103l-140 59l-138 -59v103z" />
    <glyph glyph-name="Hbar" unicode="&#x126;" horiz-adv-x="499" 
d="M488 433h-40v-433h-116v237h-166v-237h-115v433h-41v103h41v120h115v-120h166v120h116v-120h40v-103zM332 433h-166v-93h166v93z" />
    <glyph glyph-name="hbar" unicode="&#x127;" horiz-adv-x="469" 
d="M382 456q41 -42 41 -119v-337h-111v317q0 37 -16.5 56t-53.5 19q-21 0 -40 -10.5t-32 -28.5v-353h-112v552h-58v96h58v48h112v-48h113v-96h-113v-87q42 33 99 33q72 0 113 -42z" />
    <glyph glyph-name="Itilde" unicode="&#x128;" horiz-adv-x="220" 
d="M168 656v-656h-116v656h116zM134 736q-18 7 -22 8q-17 7 -28.5 10.5t-24.5 3.5q-33 0 -60 -20v98q29 20 60 20q14 0 25.5 -3.5t30.5 -10.5q13 -5 27.5 -9.5t27.5 -4.5q30 0 52 14v-99q-26 -14 -52 -14q-18 0 -36 7z" />
    <glyph glyph-name="itilde" unicode="&#x129;" horiz-adv-x="210" 
d="M160 499v-499h-111v499h111zM129 579q-18 7 -22 8q-17 7 -28.5 10.5t-24.5 3.5q-33 0 -60 -20v98q29 20 60 20q14 0 25.5 -3.5t30.5 -10.5q13 -5 27.5 -9.5t27.5 -4.5q30 0 52 14v-99q-26 -14 -52 -14q-18 0 -36 7z" />
    <glyph glyph-name="Imacron" unicode="&#x12a;" horiz-adv-x="220" 
d="M168 656v-656h-116v656h116zM222 841v-98h-223v98h223z" />
    <glyph glyph-name="imacron" unicode="&#x12b;" horiz-adv-x="210" 
d="M160 499v-499h-111v499h111zM217 684v-98h-223v98h223z" />
    <glyph glyph-name="Ibreve" unicode="&#x12c;" horiz-adv-x="220" 
d="M168 656v-656h-116v656h116zM48 735q-29 10 -49 29v100q42 -40 113 -40q34 0 62.5 10.5t47.5 29.5v-100q-20 -19 -49 -29t-61 -10q-35 0 -64 10z" />
    <glyph glyph-name="ibreve" unicode="&#x12d;" horiz-adv-x="210" 
d="M160 499v-499h-111v499h111zM43 578q-29 10 -49 29v100q42 -40 113 -40q34 0 62.5 10.5t47.5 29.5v-100q-20 -19 -49 -29t-61 -10q-35 0 -64 10z" />
    <glyph glyph-name="Iogonek" unicode="&#x12e;" horiz-adv-x="220" 
d="M168 656v-656h-116v656h116zM27.5 -146.5q-27.5 23.5 -27.5 58.5q0 24 13 45t44 48l76 66l35 -71l-51 -48q-10 -10 -10 -16q0 -12 21 -12h40v-94h-70q-43 0 -70.5 23.5z" />
    <glyph glyph-name="iogonek" unicode="&#x12f;" horiz-adv-x="210" 
d="M160 499v-499h-111v499h111zM52 582q-21 21 -21 53q0 33 21 53.5t53 20.5q33 0 53.5 -20t20.5 -54q0 -32 -20.5 -53t-53.5 -21q-32 0 -53 21zM19.5 -146.5q-27.5 23.5 -27.5 58.5q0 24 13 45t44 48l76 66l35 -71l-51 -48q-10 -10 -10 -16q0 -12 21 -12h40v-94h-70
q-43 0 -70.5 23.5z" />
    <glyph glyph-name="Idotaccent" unicode="&#x130;" horiz-adv-x="220" 
d="M168 656v-656h-116v656h116zM57 739q-21 21 -21 53q0 33 21 53.5t53 20.5q33 0 53.5 -20t20.5 -54q0 -32 -20.5 -53t-53.5 -21q-32 0 -53 21z" />
    <glyph glyph-name="dotlessi" unicode="&#x131;" horiz-adv-x="210" 
d="M160 499v-499h-111v499h111z" />
    <glyph glyph-name="IJ" unicode="&#x132;" horiz-adv-x="568" 
d="M167 656v-656h-116v656h116zM327 106q36 0 55 19t19 56v369h-155v106h271v-484q0 -79 -50.5 -125.5t-139.5 -46.5h-81v106h81z" />
    <glyph glyph-name="ij" unicode="&#x133;" horiz-adv-x="420" 
d="M160 499v-499h-111v499h111zM52 582q-21 21 -21 53q0 33 21 53.5t53 20.5q33 0 53.5 -20t20.5 -54q0 -32 -20.5 -53t-53.5 -21q-32 0 -53 21zM204 -67q26 0 40.5 15.5t14.5 42.5v508h111v-516q0 -70 -41 -111.5t-110 -41.5h-56v103h41zM262 582q-21 21 -21 53
q0 33 21 53.5t53 20.5q33 0 53.5 -20t20.5 -54q0 -32 -20.5 -53t-53.5 -21q-32 0 -53 21z" />
    <glyph glyph-name="Jcircumflex" unicode="&#x134;" horiz-adv-x="459" 
d="M79 37.5q-50 49.5 -50 139.5v84h116v-84q0 -40 19 -61.5t55 -21.5t55 19.5t19 56.5v380h-192v106h307v-496q0 -79 -51 -125.5t-138 -46.5q-90 0 -140 49.5zM248 874l140 -59v-103l-140 59l-138 -59v103z" />
    <glyph glyph-name="jcircumflex" unicode="&#x135;" horiz-adv-x="210" 
d="M-6 -67q26 0 40.5 15.5t14.5 42.5v508h111v-516q0 -70 -41 -111.5t-110 -41.5h-56v103h41zM104 716l113 -48v-103l-113 48l-110 -48v103z" />
    <glyph glyph-name="uni0136" unicode="&#x136;" horiz-adv-x="496" 
d="M468 17v-17h-119l-127 253l-55 -89v-164h-116v656h116v-285l177 285h121v-17l-172 -276zM302 -58l-52 -163h-105l44 163h113z" />
    <glyph glyph-name="uni0137" unicode="&#x137;" 
d="M435 16v-16h-121l-98 191l-56 -79v-112h-112v696h112v-402l147 205h122v-16l-138 -194zM278 -58l-52 -163h-105l44 163h113z" />
    <glyph glyph-name="Lacute" unicode="&#x139;" horiz-adv-x="416" 
d="M167 656v-550h239v-106h-355v656h116zM245 873v-99l-278 -63v100z" />
    <glyph glyph-name="lacute" unicode="&#x13a;" horiz-adv-x="232" 
d="M82.5 32q-33.5 32 -33.5 91v573h111v-554q0 -19 8 -29.5t28 -10.5h33v-102h-51q-62 0 -95.5 32zM217 875v-99l-223 -46v98z" />
    <glyph glyph-name="uni013B" unicode="&#x13b;" horiz-adv-x="416" 
d="M167 656v-550h239v-106h-355v656h116zM280 -58l-52 -163h-105l44 163h113z" />
    <glyph glyph-name="uni013C" unicode="&#x13c;" horiz-adv-x="232" 
d="M82.5 32q-33.5 32 -33.5 91v573h111v-554q0 -19 8 -29.5t28 -10.5h33v-102h-51q-62 0 -95.5 32zM222 -58l-52 -163h-105l44 163h113z" />
    <glyph glyph-name="Lcaron" unicode="&#x13d;" horiz-adv-x="416" 
d="M167 656v-550h239v-106h-355v656h116zM391 656l-59 -187h-96l28 187h127z" />
    <glyph glyph-name="lcaron" unicode="&#x13e;" horiz-adv-x="382" 
d="M82.5 32q-33.5 32 -33.5 91v573h111v-554q0 -19 8 -29.5t28 -10.5h33v-102h-51q-62 0 -95.5 32zM375 696l-59 -187h-96l28 187h127z" />
    <glyph glyph-name="Ldot" unicode="&#x13f;" horiz-adv-x="416" 
d="M167 656v-550h239v-106h-355v656h116zM265 322q-20 20 -20 51t20 50.5t51 19.5q32 0 51.5 -19.5t19.5 -50.5t-19.5 -51t-51.5 -20q-31 0 -51 20z" />
    <glyph glyph-name="ldot" unicode="&#x140;" horiz-adv-x="334" 
d="M82.5 32q-33.5 32 -33.5 91v573h111v-554q0 -19 8 -29.5t28 -10.5h33v-102h-51q-62 0 -95.5 32zM224 272.5q-19 19.5 -19 50.5q0 32 18.5 51t48.5 19q31 0 49.5 -18.5t18.5 -51.5q0 -31 -18.5 -50.5t-49.5 -19.5q-29 0 -48 19.5z" />
    <glyph glyph-name="Lslash" unicode="&#x141;" horiz-adv-x="429" 
d="M419 106v-106h-355v278l-59 -19v108l59 19v270h116v-239l138 45v-108l-138 -45v-203h239z" />
    <glyph glyph-name="lslash" unicode="&#x142;" horiz-adv-x="255" 
d="M170 343v-201q0 -19 8 -29.5t28 -10.5h33v-102h-51q-62 0 -95.5 32t-33.5 91v190l-54 -17v107l54 18v275h111v-245l76 24v-107z" />
    <glyph glyph-name="Nacute" unicode="&#x143;" horiz-adv-x="499" 
d="M448 656v-656h-123l-163 412v-412h-111v656h123l163 -418v418h111zM388 873v-99l-278 -63v100z" />
    <glyph glyph-name="nacute" unicode="&#x144;" horiz-adv-x="459" 
d="M372.5 468.5q40.5 -42.5 40.5 -118.5v-350h-111v331q0 36 -16.5 55.5t-53.5 19.5q-21 0 -40 -10.5t-32 -27.5v-368h-112v499h97l4 -30q21 20 49.5 31t60.5 11q73 0 113.5 -42.5zM370 716v-99l-278 -63v100z" />
    <glyph glyph-name="uni0145" unicode="&#x145;" horiz-adv-x="499" 
d="M448 656v-656h-123l-163 412v-412h-111v656h123l163 -418v418h111zM304 -58l-52 -163h-105l44 163h113z" />
    <glyph glyph-name="uni0146" unicode="&#x146;" horiz-adv-x="459" 
d="M372.5 468.5q40.5 -42.5 40.5 -118.5v-350h-111v331q0 36 -16.5 55.5t-53.5 19.5q-21 0 -40 -10.5t-32 -27.5v-368h-112v499h97l4 -30q21 20 49.5 31t60.5 11q73 0 113.5 -42.5zM286 -58l-52 -163h-105l44 163h113z" />
    <glyph glyph-name="Ncaron" unicode="&#x147;" horiz-adv-x="499" 
d="M448 656v-656h-123l-163 412v-412h-111v656h123l163 -418v418h111zM110 873l138 -58l140 58v-103l-140 -58l-138 58v103z" />
    <glyph glyph-name="ncaron" unicode="&#x148;" horiz-adv-x="459" 
d="M372.5 468.5q40.5 -42.5 40.5 -118.5v-350h-111v331q0 36 -16.5 55.5t-53.5 19.5q-21 0 -40 -10.5t-32 -27.5v-368h-112v499h97l4 -30q21 20 49.5 31t60.5 11q73 0 113.5 -42.5zM92 716l138 -58l140 58v-103l-140 -58l-138 58v103z" />
    <glyph glyph-name="Eng" unicode="&#x14a;" horiz-adv-x="499" 
d="M448 656v-675q0 -70 -39 -110.5t-105 -40.5h-63v105h43q44 0 51 44l-173 433v-412h-111v656h123l163 -412v412h111z" />
    <glyph glyph-name="eng" unicode="&#x14b;" horiz-adv-x="459" 
d="M372.5 468.5q40.5 -42.5 40.5 -118.5v-358q0 -76 -40.5 -119t-111.5 -43h-55v103h39q57 0 57 68v330q0 36 -16.5 55.5t-53.5 19.5q-21 0 -40 -10.5t-32 -27.5v-368h-112v499h97l4 -30q21 20 49.5 31t60.5 11q73 0 113.5 -42.5z" />
    <glyph glyph-name="Omacron" unicode="&#x14c;" horiz-adv-x="512" 
d="M104.5 39.5q-55.5 51.5 -55.5 140.5v296q0 88 56 140t151 52q96 0 151.5 -52t55.5 -140v-296q0 -89 -55.5 -140.5t-151.5 -51.5t-151.5 51.5zM324 118.5q24 24.5 24 69.5v279q0 46 -24 70.5t-68 24.5t-67.5 -24.5t-23.5 -70.5v-279q0 -45 23.5 -69.5t67.5 -24.5t68 24.5z
M395 841v-98h-278v98h278z" />
    <glyph glyph-name="omacron" unicode="&#x14d;" 
d="M89.5 31.5q-49.5 43.5 -49.5 127.5v180q0 84 49.5 128t133.5 44t133.5 -43.5t49.5 -128.5v-180q0 -84 -49.5 -127.5t-133.5 -43.5t-133.5 43.5zM274.5 112q19.5 18 19.5 52v171q0 34 -20 52.5t-51 18.5t-51 -18.5t-20 -52.5v-171q0 -33 20 -51.5t51 -18.5q32 0 51.5 18z
M362 684v-98h-278v98h278z" />
    <glyph glyph-name="Obreve" unicode="&#x14e;" horiz-adv-x="512" 
d="M104.5 39.5q-55.5 51.5 -55.5 140.5v296q0 88 56 140t151 52q96 0 151.5 -52t55.5 -140v-296q0 -89 -55.5 -140.5t-151.5 -51.5t-151.5 51.5zM324 118.5q24 24.5 24 69.5v279q0 46 -24 70.5t-68 24.5t-67.5 -24.5t-23.5 -70.5v-279q0 -45 23.5 -69.5t67.5 -24.5t68 24.5z
M117 765v100q28 -19 64 -30.5t77 -11.5q38 0 73.5 11t63.5 31v-100q-28 -19 -63 -30t-74 -11q-81 0 -141 41z" />
    <glyph glyph-name="obreve" unicode="&#x14f;" 
d="M89.5 31.5q-49.5 43.5 -49.5 127.5v180q0 84 49.5 128t133.5 44t133.5 -43.5t49.5 -128.5v-180q0 -84 -49.5 -127.5t-133.5 -43.5t-133.5 43.5zM274.5 112q19.5 18 19.5 52v171q0 34 -20 52.5t-51 18.5t-51 -18.5t-20 -52.5v-171q0 -33 20 -51.5t51 -18.5q32 0 51.5 18z
M84 608v100q28 -19 64 -30.5t77 -11.5q38 0 73.5 11t63.5 31v-100q-28 -19 -63 -30t-74 -11q-81 0 -141 41z" />
    <glyph glyph-name="Ohungarumlaut" unicode="&#x150;" horiz-adv-x="512" 
d="M104.5 39.5q-55.5 51.5 -55.5 140.5v296q0 88 56 140t151 52q96 0 151.5 -52t55.5 -140v-296q0 -89 -55.5 -140.5t-151.5 -51.5t-151.5 51.5zM324 118.5q24 24.5 24 69.5v279q0 46 -24 70.5t-68 24.5t-67.5 -24.5t-23.5 -70.5v-279q0 -45 23.5 -69.5t67.5 -24.5t68 24.5z
M277 874v-102l-188 -60v100zM482 874v-102l-187 -60v100z" />
    <glyph glyph-name="ohungarumlaut" unicode="&#x151;" 
d="M89.5 31.5q-49.5 43.5 -49.5 127.5v180q0 84 49.5 128t133.5 44t133.5 -43.5t49.5 -128.5v-180q0 -84 -49.5 -127.5t-133.5 -43.5t-133.5 43.5zM274.5 112q19.5 18 19.5 52v171q0 34 -20 52.5t-51 18.5t-51 -18.5t-20 -52.5v-171q0 -33 20 -51.5t51 -18.5q32 0 51.5 18z
M244 717v-102l-188 -60v100zM449 717v-102l-187 -60v100z" />
    <glyph glyph-name="OE" unicode="&#x152;" horiz-adv-x="708" 
d="M104.5 52.5q-55.5 52.5 -55.5 145.5v259q0 94 55.5 146.5t154.5 52.5h422v-106h-232v-170h215v-105h-215v-169h232v-106h-422q-99 0 -154.5 52.5zM334 550h-79q-44 0 -67 -25t-23 -73v-248q0 -48 23 -73t67 -25h79v444z" />
    <glyph glyph-name="oe" unicode="&#x153;" horiz-adv-x="711" 
d="M419 213v-54q0 -30 19 -48.5t51 -18.5t51.5 19t19.5 51h111q-2 -83 -49.5 -128.5t-130.5 -45.5q-43 0 -77.5 15.5t-58.5 44.5q-23 -29 -57 -44.5t-77 -15.5q-83 0 -132 48t-49 130v167q0 82 49 130t132 48q43 0 77 -15.5t57 -44.5q24 29 58.5 44.5t77.5 15.5
q84 0 132 -45.5t48 -126.5v-126h-252zM438 387.5q-19 -19.5 -19 -51.5v-32h141v32q0 32 -19.5 51.5t-51.5 19.5t-51 -19.5zM292 335q0 32 -19 51.5t-50 19.5q-33 0 -52 -19.5t-19 -51.5v-171q0 -32 19.5 -51t51.5 -19t50.5 19t18.5 51v171z" />
    <glyph glyph-name="Racute" unicode="&#x154;" horiz-adv-x="486" 
d="M458 17v-17h-115l-134 261h-42v-261h-116v656h209q95 0 145.5 -48.5t50.5 -139.5v-20q0 -74 -32.5 -119.5t-95.5 -60.5zM167 365h84q43 0 66 19.5t23 63.5v20q0 82 -89 82h-84v-185zM358 873v-99l-278 -63v100z" />
    <glyph glyph-name="racute" unicode="&#x155;" horiz-adv-x="307" 
d="M297 499v-102h-56q-58 0 -81 -41v-356h-111v499h96l5 -32q42 32 91 32h56zM310 716v-99l-278 -63v100z" />
    <glyph glyph-name="uni0156" unicode="&#x156;" horiz-adv-x="486" 
d="M458 17v-17h-115l-134 261h-42v-261h-116v656h209q95 0 145.5 -48.5t50.5 -139.5v-20q0 -74 -32.5 -119.5t-95.5 -60.5zM167 365h84q43 0 66 19.5t23 63.5v20q0 82 -89 82h-84v-185zM300 -58l-52 -163h-105l44 163h113z" />
    <glyph glyph-name="uni0157" unicode="&#x157;" horiz-adv-x="307" 
d="M297 499v-102h-56q-58 0 -81 -41v-356h-111v499h96l5 -32q42 32 91 32h56zM162 -58l-52 -163h-105l44 163h113z" />
    <glyph glyph-name="Rcaron" unicode="&#x158;" horiz-adv-x="486" 
d="M458 17v-17h-115l-134 261h-42v-261h-116v656h209q95 0 145.5 -48.5t50.5 -139.5v-20q0 -74 -32.5 -119.5t-95.5 -60.5zM167 365h84q43 0 66 19.5t23 63.5v20q0 82 -89 82h-84v-185zM80 873l138 -58l140 58v-103l-140 -58l-138 58v103z" />
    <glyph glyph-name="rcaron" unicode="&#x159;" horiz-adv-x="307" 
d="M297 499v-102h-56q-58 0 -81 -41v-356h-111v499h96l5 -32q42 32 91 32h56zM32 716l138 -58l140 58v-103l-140 -58l-138 58v103z" />
    <glyph glyph-name="Sacute" unicode="&#x15a;" horiz-adv-x="458" 
d="M81.5 39q-50.5 51 -50.5 147v30h113v-30q0 -93 83 -93q40 0 62.5 20t22.5 56v10q0 32 -18 54t-60 41l-58 26q-70 31 -104 73t-34 100v20q0 79 52.5 127t142.5 48q88 0 137.5 -47t49.5 -133v-30h-113v30q0 37 -17.5 56.5t-58.5 19.5q-37 0 -57.5 -17.5t-20.5 -49.5v-10
q0 -28 15.5 -48.5t57.5 -38.5l60 -26q73 -32 107.5 -76t34.5 -106v-20q0 -84 -53.5 -134t-147.5 -50q-95 0 -145.5 51zM368 873v-99l-278 -63v100z" />
    <glyph glyph-name="sacute" unicode="&#x15b;" horiz-adv-x="427" 
d="M82 29.5q-46 41.5 -46 118.5v18h111v-18q0 -29 17.5 -44.5t48.5 -15.5q30 0 48.5 13t18.5 35v8q0 19 -15.5 32.5t-47.5 22.5l-51 14q-60 16 -92 52t-32 86v16q0 66 47.5 105t127.5 39q83 0 127.5 -40t44.5 -115v-18h-109v18q0 26 -18 41t-47 15t-45.5 -12t-16.5 -32v-8
q0 -35 51 -50l62 -17q65 -18 95.5 -51t30.5 -91v-16q0 -68 -47.5 -107.5t-130.5 -39.5q-86 0 -132 41.5zM352 716v-99l-278 -63v100z" />
    <glyph glyph-name="Scircumflex" unicode="&#x15c;" horiz-adv-x="458" 
d="M81.5 39q-50.5 51 -50.5 147v30h113v-30q0 -93 83 -93q40 0 62.5 20t22.5 56v10q0 32 -18 54t-60 41l-58 26q-70 31 -104 73t-34 100v20q0 79 52.5 127t142.5 48q88 0 137.5 -47t49.5 -133v-30h-113v30q0 37 -17.5 56.5t-58.5 19.5q-37 0 -57.5 -17.5t-20.5 -49.5v-10
q0 -28 15.5 -48.5t57.5 -38.5l60 -26q73 -32 107.5 -76t34.5 -106v-20q0 -84 -53.5 -134t-147.5 -50q-95 0 -145.5 51zM228 874l140 -59v-103l-140 59l-138 -59v103z" />
    <glyph glyph-name="scircumflex" unicode="&#x15d;" horiz-adv-x="427" 
d="M82 29.5q-46 41.5 -46 118.5v18h111v-18q0 -29 17.5 -44.5t48.5 -15.5q30 0 48.5 13t18.5 35v8q0 19 -15.5 32.5t-47.5 22.5l-51 14q-60 16 -92 52t-32 86v16q0 66 47.5 105t127.5 39q83 0 127.5 -40t44.5 -115v-18h-109v18q0 26 -18 41t-47 15t-45.5 -12t-16.5 -32v-8
q0 -35 51 -50l62 -17q65 -18 95.5 -51t30.5 -91v-16q0 -68 -47.5 -107.5t-130.5 -39.5q-86 0 -132 41.5zM212 717l140 -59v-103l-140 59l-138 -59v103z" />
    <glyph glyph-name="Scedilla" unicode="&#x15e;" horiz-adv-x="458" 
d="M81.5 39q-50.5 51 -50.5 147v30h113v-30q0 -93 83 -93q40 0 62.5 20t22.5 56v10q0 32 -18 54t-60 41l-58 26q-70 31 -104 73t-34 100v20q0 79 52.5 127t142.5 48q88 0 137.5 -47t49.5 -133v-30h-113v30q0 37 -17.5 56.5t-58.5 19.5q-37 0 -57.5 -17.5t-20.5 -49.5v-10
q0 -28 15.5 -48.5t57.5 -38.5l60 -26q73 -32 107.5 -76t34.5 -106v-20q0 -84 -53.5 -134t-147.5 -50q-95 0 -145.5 51zM287 1l-45 -171h-116l50 191z" />
    <glyph glyph-name="scedilla" unicode="&#x15f;" horiz-adv-x="427" 
d="M82 29.5q-46 41.5 -46 118.5v18h111v-18q0 -29 17.5 -44.5t48.5 -15.5q30 0 48.5 13t18.5 35v8q0 19 -15.5 32.5t-47.5 22.5l-51 14q-60 16 -92 52t-32 86v16q0 66 47.5 105t127.5 39q83 0 127.5 -40t44.5 -115v-18h-109v18q0 26 -18 41t-47 15t-45.5 -12t-16.5 -32v-8
q0 -35 51 -50l62 -17q65 -18 95.5 -51t30.5 -91v-16q0 -68 -47.5 -107.5t-130.5 -39.5q-86 0 -132 41.5zM271 1l-45 -171h-116l50 191z" />
    <glyph glyph-name="Scaron" unicode="&#x160;" horiz-adv-x="458" 
d="M81.5 39q-50.5 51 -50.5 147v30h113v-30q0 -93 83 -93q40 0 62.5 20t22.5 56v10q0 32 -18 54t-60 41l-58 26q-70 31 -104 73t-34 100v20q0 79 52.5 127t142.5 48q88 0 137.5 -47t49.5 -133v-30h-113v30q0 37 -17.5 56.5t-58.5 19.5q-37 0 -57.5 -17.5t-20.5 -49.5v-10
q0 -28 15.5 -48.5t57.5 -38.5l60 -26q73 -32 107.5 -76t34.5 -106v-20q0 -84 -53.5 -134t-147.5 -50q-95 0 -145.5 51zM90 873l138 -58l140 58v-103l-140 -58l-138 58v103z" />
    <glyph glyph-name="scaron" unicode="&#x161;" horiz-adv-x="427" 
d="M82 29.5q-46 41.5 -46 118.5v18h111v-18q0 -29 17.5 -44.5t48.5 -15.5q30 0 48.5 13t18.5 35v8q0 19 -15.5 32.5t-47.5 22.5l-51 14q-60 16 -92 52t-32 86v16q0 66 47.5 105t127.5 39q83 0 127.5 -40t44.5 -115v-18h-109v18q0 26 -18 41t-47 15t-45.5 -12t-16.5 -32v-8
q0 -35 51 -50l62 -17q65 -18 95.5 -51t30.5 -91v-16q0 -68 -47.5 -107.5t-130.5 -39.5q-86 0 -132 41.5zM74 716l138 -58l140 58v-103l-140 -58l-138 58v103z" />
    <glyph glyph-name="uni0162" unicode="&#x162;" horiz-adv-x="404" 
d="M10 550v106h384v-106h-134v-550h-116v550h-134zM260 1l-45 -171h-116l50 191z" />
    <glyph glyph-name="uni0163" unicode="&#x163;" horiz-adv-x="348" 
d="M213 397v-236q0 -28 14 -43.5t39 -15.5h50v-102h-65q-70 0 -109.5 38t-39.5 106v253h-98v102h71q17 0 24 7.5t7 23.5v102h107v-133h127v-102h-127zM286 1l-45 -171h-116l50 191z" />
    <glyph glyph-name="Tcaron" unicode="&#x164;" horiz-adv-x="404" 
d="M10 550v106h384v-106h-134v-550h-116v550h-134zM63 873l138 -58l140 58v-103l-140 -58l-138 58v103z" />
    <glyph glyph-name="tcaron" unicode="&#x165;" horiz-adv-x="418" 
d="M213 397v-236q0 -28 14 -43.5t39 -15.5h50v-102h-65q-70 0 -109.5 38t-39.5 106v253h-98v102h71q17 0 24 7.5t7 23.5v102h107v-133h127v-102h-127zM428 740l-59 -187h-96l28 187h127z" />
    <glyph glyph-name="Tbar" unicode="&#x166;" horiz-adv-x="424" 
d="M270 550v-185h114v-102h-114v-263h-116v263h-114v102h114v185h-134v106h384v-106h-134z" />
    <glyph glyph-name="tbar" unicode="&#x167;" horiz-adv-x="368" 
d="M223 401v-98h120v-98h-120v-44q0 -28 14 -43.5t39 -15.5h50v-102h-65q-70 0 -109.5 38t-39.5 106v61h-98v98h98v98h-98v98h71q17 0 24 7.5t7 23.5v102h107v-133h120v-98h-120z" />
    <glyph glyph-name="Utilde" unicode="&#x168;" horiz-adv-x="495" 
d="M101 36q-50 48 -50 141v479h116v-478q0 -84 81 -84q80 0 80 84v478h116v-479q0 -94 -49.5 -141.5t-146.5 -47.5t-147 48zM254 744q-42 14 -66 14q-38 0 -75 -22v97q37 23 76 23q16 0 33.5 -4.5t33.5 -9.5q22 -7 37 -10.5t32 -3.5q35 0 66 16v-98q-32 -17 -66 -17
q-28 0 -71 15z" />
    <glyph glyph-name="utilde" unicode="&#x169;" horiz-adv-x="459" 
d="M411 499v-499h-97l-4 30q-21 -20 -49.5 -31t-60.5 -11q-73 0 -113.5 42.5t-40.5 118.5v350h111v-331q0 -36 16.5 -55.5t53.5 -19.5q21 0 40 10.5t32 27.5v368h112zM231 586q-42 14 -66 14q-38 0 -75 -22v97q37 23 76 23q16 0 33.5 -4.5t33.5 -9.5q22 -7 37 -10.5t32 -3.5
q35 0 66 16v-98q-32 -17 -66 -17q-28 0 -71 15z" />
    <glyph glyph-name="Umacron" unicode="&#x16a;" horiz-adv-x="495" 
d="M101 36q-50 48 -50 141v479h116v-478q0 -84 81 -84q80 0 80 84v478h116v-479q0 -94 -49.5 -141.5t-146.5 -47.5t-147 48zM391 841v-98h-278v98h278z" />
    <glyph glyph-name="umacron" unicode="&#x16b;" horiz-adv-x="459" 
d="M411 499v-499h-97l-4 30q-21 -20 -49.5 -31t-60.5 -11q-73 0 -113.5 42.5t-40.5 118.5v350h111v-331q0 -36 16.5 -55.5t53.5 -19.5q21 0 40 10.5t32 27.5v368h112zM368 683v-98h-278v98h278z" />
    <glyph glyph-name="Ubreve" unicode="&#x16c;" horiz-adv-x="495" 
d="M101 36q-50 48 -50 141v479h116v-478q0 -84 81 -84q80 0 80 84v478h116v-479q0 -94 -49.5 -141.5t-146.5 -47.5t-147 48zM113 765v100q28 -19 64 -30.5t77 -11.5q38 0 73.5 11t63.5 31v-100q-28 -19 -63 -30t-74 -11q-81 0 -141 41z" />
    <glyph glyph-name="ubreve" unicode="&#x16d;" horiz-adv-x="459" 
d="M411 499v-499h-97l-4 30q-21 -20 -49.5 -31t-60.5 -11q-73 0 -113.5 42.5t-40.5 118.5v350h111v-331q0 -36 16.5 -55.5t53.5 -19.5q21 0 40 10.5t32 27.5v368h112zM90 607v100q28 -19 64 -30.5t77 -11.5q38 0 73.5 11t63.5 31v-100q-28 -19 -63 -30t-74 -11
q-81 0 -141 41z" />
    <glyph glyph-name="Uring" unicode="&#x16e;" horiz-adv-x="495" 
d="M101 36q-50 48 -50 141v479h116v-478q0 -84 81 -84q80 0 80 84v478h116v-479q0 -94 -49.5 -141.5t-146.5 -47.5t-147 48zM162.5 730.5q-34.5 32.5 -34.5 85.5t34.5 86t89.5 33q56 0 90.5 -33t34.5 -86t-34.5 -85.5t-90.5 -32.5q-55 0 -89.5 32.5zM284 784.5
q12 12.5 12 31.5t-12 31t-31 12q-18 0 -30.5 -12t-12.5 -31q0 -20 12 -32t31 -12t31 12.5z" />
    <glyph glyph-name="uring" unicode="&#x16f;" horiz-adv-x="459" 
d="M411 499v-499h-97l-4 30q-21 -20 -49.5 -31t-60.5 -11q-73 0 -113.5 42.5t-40.5 118.5v350h111v-331q0 -36 16.5 -55.5t53.5 -19.5q21 0 40 10.5t32 27.5v368h112zM139.5 572.5q-34.5 32.5 -34.5 85.5t34.5 86t89.5 33q56 0 90.5 -33t34.5 -86t-34.5 -85.5t-90.5 -32.5
q-55 0 -89.5 32.5zM261 626.5q12 12.5 12 31.5t-12 31t-31 12q-18 0 -30.5 -12t-12.5 -31q0 -20 12 -32t31 -12t31 12.5z" />
    <glyph glyph-name="Uhungarumlaut" unicode="&#x170;" horiz-adv-x="495" 
d="M101 36q-50 48 -50 141v479h116v-478q0 -84 81 -84q80 0 80 84v478h116v-479q0 -94 -49.5 -141.5t-146.5 -47.5t-147 48zM273 874v-102l-188 -60v100zM478 874v-102l-187 -60v100z" />
    <glyph glyph-name="uhungarumlaut" unicode="&#x171;" horiz-adv-x="459" 
d="M411 499v-499h-97l-4 30q-21 -20 -49.5 -31t-60.5 -11q-73 0 -113.5 42.5t-40.5 118.5v350h111v-331q0 -36 16.5 -55.5t53.5 -19.5q21 0 40 10.5t32 27.5v368h112zM250 716v-102l-188 -60v100zM455 716v-102l-187 -60v100z" />
    <glyph glyph-name="Uogonek" unicode="&#x172;" horiz-adv-x="495" 
d="M101 36q-50 48 -50 141v479h116v-478q0 -84 81 -84q80 0 80 84v478h116v-479q0 -94 -49.5 -141.5t-146.5 -47.5t-147 48zM238.5 -145.5q-27.5 24.5 -27.5 63.5q0 23 13 45t40 50l57 59l79 -28l-66 -77q-7 -8 -11.5 -15t-4.5 -13q0 -7 6 -11t17 -4h38v-94h-69
q-44 0 -71.5 24.5z" />
    <glyph glyph-name="uogonek" unicode="&#x173;" horiz-adv-x="459" 
d="M411 499v-499h-97l-4 30q-21 -20 -49.5 -31t-60.5 -11q-73 0 -113.5 42.5t-40.5 118.5v350h111v-331q0 -36 16.5 -55.5t53.5 -19.5q21 0 40 10.5t32 27.5v368h112zM270.5 -146.5q-27.5 23.5 -27.5 58.5q0 24 13 45t44 48l76 66l35 -71l-51 -48q-10 -10 -10 -16
q0 -12 21 -12h40v-94h-70q-43 0 -70.5 23.5z" />
    <glyph glyph-name="Wcircumflex" unicode="&#x174;" horiz-adv-x="782" 
d="M764 656v-17l-147 -639h-135l-91 435l-90 -435h-135l-147 639v17h115l101 -468l100 468h113l101 -466l100 466h115zM390 874l140 -59v-103l-140 59l-138 -59v103z" />
    <glyph glyph-name="wcircumflex" unicode="&#x175;" horiz-adv-x="678" 
d="M662 499v-16l-120 -483h-131l-72 312l-72 -312h-131l-120 483v16h107l80 -353l78 353h116l78 -353l80 353h107zM338 717l140 -59v-103l-140 59l-138 -59v103z" />
    <glyph glyph-name="Ycircumflex" unicode="&#x176;" horiz-adv-x="454" 
d="M443 639l-158 -380v-259h-116v257l-158 382v17h113l103 -255l102 255h114v-17zM226 874l140 -59v-103l-140 59l-138 -59v103z" />
    <glyph glyph-name="ycircumflex" unicode="&#x177;" horiz-adv-x="464" 
d="M448 499v-16l-171 -542q-19 -60 -54.5 -85.5t-98.5 -25.5h-62v103h51q25 0 37.5 9.5t19.5 34.5l8 28l-162 478v16h118l101 -333l95 333h118zM231 717l140 -59v-103l-140 59l-138 -59v103z" />
    <glyph glyph-name="Ydieresis" unicode="&#x178;" horiz-adv-x="454" 
d="M443 639l-158 -380v-259h-116v257l-158 382v17h113l103 -255l102 255h114v-17zM88.5 745q-18.5 18 -18.5 47t18 47t47 18t47 -17.5t18 -47.5t-18 -47.5t-47 -17.5q-28 0 -46.5 18zM271 744.5q-18 17.5 -18 47.5t18 47.5t47 17.5t47 -18t18 -47t-18 -47t-47 -18t-47 17.5z
" />
    <glyph glyph-name="Zacute" unicode="&#x179;" horiz-adv-x="426" 
d="M387 550l-227 -444h227v-106h-348v106l228 444h-218v106h338v-106zM352 873v-99l-278 -63v100z" />
    <glyph glyph-name="zacute" unicode="&#x17a;" horiz-adv-x="421" 
d="M377 397l-206 -295h206v-102h-333v102l206 295h-206v102h333v-102zM349 716v-99l-278 -63v100z" />
    <glyph glyph-name="Zdotaccent" unicode="&#x17b;" horiz-adv-x="426" 
d="M387 550l-227 -444h227v-106h-348v106l228 444h-218v106h338v-106zM160 739q-21 21 -21 53q0 33 21 53.5t53 20.5q33 0 53.5 -20t20.5 -54q0 -32 -20.5 -53t-53.5 -21q-32 0 -53 21z" />
    <glyph glyph-name="zdotaccent" unicode="&#x17c;" horiz-adv-x="421" 
d="M377 397l-206 -295h206v-102h-333v102l206 295h-206v102h333v-102zM157 582q-21 21 -21 53q0 33 21 53.5t53 20.5q33 0 53.5 -20t20.5 -54q0 -32 -20.5 -53t-53.5 -21q-32 0 -53 21z" />
    <glyph glyph-name="Zcaron" unicode="&#x17d;" horiz-adv-x="426" 
d="M387 550l-227 -444h227v-106h-348v106l228 444h-218v106h338v-106zM74 873l138 -58l140 58v-103l-140 -58l-138 58v103z" />
    <glyph glyph-name="zcaron" unicode="&#x17e;" horiz-adv-x="421" 
d="M377 397l-206 -295h206v-102h-333v102l206 295h-206v102h333v-102zM71 716l138 -58l140 58v-103l-140 -58l-138 58v103z" />
    <glyph glyph-name="uni018F" unicode="&#x18f;" horiz-adv-x="512" 
d="M407 615.5q56 -52.5 56 -139.5v-296q0 -88 -56 -140t-151 -52q-96 0 -151.5 53.5t-55.5 145.5v193h303v85q0 47 -25 72.5t-71 25.5q-48 0 -71.5 -26t-23.5 -79h-112q0 100 54 155t153 55q95 0 151 -52.5zM327.5 119q24.5 25 24.5 71v85h-191v-85q0 -46 24.5 -71t70.5 -25
q47 0 71.5 25z" />
    <glyph glyph-name="florin" unicode="&#x192;" horiz-adv-x="490" 
d="M453 278h-167v-261q0 -73 -35.5 -111.5t-119.5 -38.5h-64v102h56q25 0 38.5 14t13.5 40v255h-138v102h138v166q0 73 36 111.5t120 38.5h92v-103h-84q-25 0 -39 -13.5t-14 -39.5v-160h167v-102z" />
    <glyph glyph-name="uni01CD" unicode="&#x1cd;" horiz-adv-x="499" 
d="M481 17v-17h-118l-29 127h-167l-30 -127h-118v17l163 639h137zM310 231l-60 257l-59 -257h119zM111 873l138 -58l140 58v-103l-140 -58l-138 58v103z" />
    <glyph glyph-name="uni01CE" unicode="&#x1ce;" horiz-adv-x="462" 
d="M457 102v-102h-50q-64 0 -96 34q-42 -46 -122 -46q-74 0 -116 38.5t-42 106.5q0 62 38.5 99t117.5 51l94 16v42q0 32 -17 49t-49 17q-34 0 -51.5 -18.5t-17.5 -54.5v-10h-111v10q0 87 45.5 132t131.5 45q88 0 134 -45t46 -131v-193q0 -40 36 -40h29zM247 96.5
q22 12.5 34 33.5v77l-68 -11q-34 -5 -53 -21.5t-19 -39.5q0 -24 15.5 -37.5t43.5 -13.5q25 0 47 12.5zM83 716l138 -58l140 58v-103l-140 -58l-138 58v103z" />
    <glyph glyph-name="uni01D2" unicode="&#x1d2;" 
d="M89.5 31.5q-49.5 43.5 -49.5 127.5v180q0 84 49.5 128t133.5 44t133.5 -43.5t49.5 -128.5v-180q0 -84 -49.5 -127.5t-133.5 -43.5t-133.5 43.5zM274.5 112q19.5 18 19.5 52v171q0 34 -20 52.5t-51 18.5t-51 -18.5t-20 -52.5v-171q0 -33 20 -51.5t51 -18.5q32 0 51.5 18z
M84 716l138 -58l140 58v-103l-140 -58l-138 58v103z" />
    <glyph glyph-name="Gcaron" unicode="&#x1e6;" horiz-adv-x="521" 
d="M354 432v36q0 44 -25 69t-69 25t-69.5 -25t-25.5 -68v-281q0 -45 24.5 -69t69.5 -24q63 0 97 46v109h-120v104h233v-354h-94l-4 29q-46 -41 -117 -41q-60 0 -106.5 24t-72.5 68t-26 100v296q0 89 56.5 140.5t154.5 51.5q100 0 155 -52t55 -148v-36h-116zM121 873l138 -58
l140 58v-103l-140 -58l-138 58v103z" />
    <glyph glyph-name="gcaron" unicode="&#x1e7;" horiz-adv-x="454" 
d="M407 499v-509q0 -83 -48 -127.5t-137 -44.5t-136.5 45t-47.5 130v10h112v-10q0 -34 17 -52t57 -18q34 0 52.5 17t18.5 50v73q-42 -33 -97 -33q-73 0 -116 44.5t-43 118.5v164q0 70 43.5 112t117.5 42q67 0 106 -39l4 27h97zM263.5 143.5q18.5 10.5 31.5 29.5v193
q-13 19 -31.5 29.5t-38.5 10.5q-34 0 -54 -21t-20 -58v-115q0 -37 20 -58t54 -21q20 0 38.5 10.5zM80 716l138 -58l140 58v-103l-140 -58l-138 58v103z" />
    <glyph glyph-name="uni01F4" unicode="&#x1f4;" horiz-adv-x="521" 
d="M354 432v36q0 44 -25 69t-69 25t-69.5 -25t-25.5 -68v-281q0 -45 24.5 -69t69.5 -24q63 0 97 46v109h-120v104h233v-354h-94l-4 29q-46 -41 -117 -41q-60 0 -106.5 24t-72.5 68t-26 100v296q0 89 56.5 140.5t154.5 51.5q100 0 155 -52t55 -148v-36h-116zM399 873v-99
l-278 -63v100z" />
    <glyph glyph-name="uni01F5" unicode="&#x1f5;" horiz-adv-x="454" 
d="M407 499v-509q0 -83 -48 -127.5t-137 -44.5t-136.5 45t-47.5 130v10h112v-10q0 -34 17 -52t57 -18q34 0 52.5 17t18.5 50v73q-42 -33 -97 -33q-73 0 -116 44.5t-43 118.5v164q0 70 43.5 112t117.5 42q67 0 106 -39l4 27h97zM263.5 143.5q18.5 10.5 31.5 29.5v193
q-13 19 -31.5 29.5t-38.5 10.5q-34 0 -54 -21t-20 -58v-115q0 -37 20 -58t54 -21q20 0 38.5 10.5zM358 716v-99l-278 -63v100z" />
    <glyph glyph-name="AEacute" unicode="&#x1fc;" horiz-adv-x="657" 
d="M388 549l20 -168h202v-106h-189l20 -169h189v-106h-291l-15 127h-163l-31 -127h-111v17l161 639h450v-107h-242zM274 549h-11l-77 -318h126zM468 873v-99l-278 -63v100z" />
    <glyph glyph-name="aeacute" unicode="&#x1fd;" horiz-adv-x="695" 
d="M402 213v-52q0 -31 20 -49.5t53 -18.5q32 0 50.5 18.5t18.5 50.5h111q-2 -84 -49 -129t-131 -45q-97 0 -147 52q-24 -25 -58.5 -38.5t-76.5 -13.5q-75 0 -118.5 38.5t-43.5 105.5q0 126 156 151l93 15v44q0 31 -17.5 48t-48.5 17q-69 0 -69 -73v-10h-110v10
q0 87 43.5 132t128.5 45q94 0 139 -57q24 27 59 42t77 15q77 0 125 -47.5t48 -124.5v-126h-253zM421.5 387.5q-19.5 -19.5 -19.5 -51.5v-32h142v32q0 32 -19.5 51.5t-52.5 19.5q-31 0 -50.5 -19.5zM249 97q22 13 33 36q-2 22 -2 34v40l-70 -11q-34 -5 -51.5 -20.5
t-17.5 -39.5q0 -25 15.5 -38.5t43.5 -13.5q27 0 49 13zM486 716v-99l-278 -63v100z" />
    <glyph glyph-name="Oslashacute" unicode="&#x1fe;" horiz-adv-x="512" 
d="M463 476v-296q0 -88 -56 -140t-151 -52q-26 0 -56 5l-20 -61h-109v19l31 91q-53 51 -53 138v296q0 88 56 140t151 52q30 0 57 -6l21 62h108v-18l-31 -93q52 -54 52 -137zM159 189q0 -8 1 -13l126 384q-14 3 -30 3q-46 0 -71.5 -25t-25.5 -71v-278zM353 467v11l-126 -382
q14 -3 29 -3q47 0 72 25t25 71v278zM395 873v-99l-278 -63v100z" />
    <glyph glyph-name="oslashacute" unicode="&#x1ff;" 
d="M407 339v-180q0 -81 -48 -126t-136 -45q-26 0 -45 4l-18 -47h-100v17l28 71q-48 45 -48 126v180q0 82 48 127t135 45q28 0 47 -4l17 46h100v-16l-27 -72q47 -44 47 -126zM165.5 391.5q-21.5 -21.5 -21.5 -56.5v-168l95 245q-5 1 -15 1q-37 0 -58.5 -21.5zM281.5 107.5
q21.5 20.5 21.5 55.5v167l-93 -242q4 -1 14 -1q36 0 57.5 20.5zM362 716v-99l-278 -63v100z" />
    <glyph glyph-name="uni0218" unicode="&#x218;" horiz-adv-x="458" 
d="M81.5 39q-50.5 51 -50.5 147v30h113v-30q0 -93 83 -93q40 0 62.5 20t22.5 56v10q0 32 -18 54t-60 41l-58 26q-70 31 -104 73t-34 100v20q0 79 52.5 127t142.5 48q88 0 137.5 -47t49.5 -133v-30h-113v30q0 37 -17.5 56.5t-58.5 19.5q-37 0 -57.5 -17.5t-20.5 -49.5v-10
q0 -28 15.5 -48.5t57.5 -38.5l60 -26q73 -32 107.5 -76t34.5 -106v-20q0 -84 -53.5 -134t-147.5 -50q-95 0 -145.5 51zM284 -58l-52 -163h-105l44 163h113z" />
    <glyph glyph-name="uni0219" unicode="&#x219;" horiz-adv-x="427" 
d="M82 29.5q-46 41.5 -46 118.5v18h111v-18q0 -29 17.5 -44.5t48.5 -15.5q30 0 48.5 13t18.5 35v8q0 19 -15.5 32.5t-47.5 22.5l-51 14q-60 16 -92 52t-32 86v16q0 66 47.5 105t127.5 39q83 0 127.5 -40t44.5 -115v-18h-109v18q0 26 -18 41t-47 15t-45.5 -12t-16.5 -32v-8
q0 -35 51 -50l62 -17q65 -18 95.5 -51t30.5 -91v-16q0 -68 -47.5 -107.5t-130.5 -39.5q-86 0 -132 41.5zM268 -58l-52 -163h-105l44 163h113z" />
    <glyph glyph-name="uni021A" unicode="&#x21a;" horiz-adv-x="404" 
d="M10 550v106h384v-106h-134v-550h-116v550h-134zM257 -58l-52 -163h-105l44 163h113z" />
    <glyph glyph-name="uni021B" unicode="&#x21b;" horiz-adv-x="348" 
d="M213 397v-236q0 -28 14 -43.5t39 -15.5h50v-102h-65q-70 0 -109.5 38t-39.5 106v253h-98v102h71q17 0 24 7.5t7 23.5v102h107v-133h127v-102h-127zM283 -58l-52 -163h-105l44 163h113z" />
    <glyph glyph-name="uni0232" unicode="&#x232;" horiz-adv-x="454" 
d="M443 639l-158 -380v-259h-116v257l-158 382v17h113l103 -255l102 255h114v-17zM366 841v-98h-278v98h278z" />
    <glyph glyph-name="uni0233" unicode="&#x233;" horiz-adv-x="464" 
d="M448 499v-16l-171 -542q-19 -60 -54.5 -85.5t-98.5 -25.5h-62v103h51q25 0 37.5 9.5t19.5 34.5l8 28l-162 478v16h118l101 -333l95 333h118zM371 684v-98h-278v98h278z" />
    <glyph glyph-name="uni0237" unicode="&#x237;" horiz-adv-x="210" 
d="M-6 -67q26 0 40.5 15.5t14.5 42.5v508h111v-516q0 -70 -41 -111.5t-110 -41.5h-56v103h41z" />
    <glyph glyph-name="uni0259" unicode="&#x259;" 
d="M358 466q48 -45 48 -126v-180q0 -82 -48 -127t-135 -45t-135 45t-48 127v126h255v56q0 29 -19.5 47t-52.5 18q-34 0 -53 -19t-19 -51h-111q2 84 49.5 129t133.5 45q87 0 135 -45zM275 110q20 18 20 48v36h-144v-36q0 -30 19.5 -48t52.5 -18q32 0 52 18z" />
    <glyph glyph-name="uni02BB" unicode="&#x2bb;" horiz-adv-x="600" 
d="M691 717l-44 -165h-118l54 165h108z" />
    <glyph glyph-name="uni02BC" unicode="&#x2bc;" horiz-adv-x="284" 
d="M224 700v-16l-76 -249h-102l50 265h128z" />
    <glyph glyph-name="circumflex" unicode="&#x2c6;" horiz-adv-x="600" 
d="M299 717l140 -59v-103l-140 59l-138 -59v103z" />
    <glyph glyph-name="caron" unicode="&#x2c7;" horiz-adv-x="600" 
d="M161 716l138 -58l140 58v-103l-140 -58l-138 58v103z" />
    <glyph glyph-name="uni02C9" unicode="&#x2c9;" horiz-adv-x="600" 
d="M739 684v-98h-278v98h278z" />
    <glyph glyph-name="breve" unicode="&#x2d8;" horiz-adv-x="600" 
d="M161 608v100q28 -19 64 -30.5t77 -11.5q38 0 73.5 11t63.5 31v-100q-28 -19 -63 -30t-74 -11q-81 0 -141 41z" />
    <glyph glyph-name="dotaccent" unicode="&#x2d9;" horiz-adv-x="600" 
d="M247 582q-21 21 -21 53q0 33 21 53.5t53 20.5q33 0 53.5 -20t20.5 -54q0 -32 -20.5 -53t-53.5 -21q-32 0 -53 21z" />
    <glyph glyph-name="ring" unicode="&#x2da;" horiz-adv-x="600" 
d="M209.5 573.5q-34.5 32.5 -34.5 85.5t34.5 86t89.5 33q56 0 90.5 -33t34.5 -86t-34.5 -85.5t-90.5 -32.5q-55 0 -89.5 32.5zM331 627.5q12 12.5 12 31.5t-12 31t-31 12q-18 0 -30.5 -12t-12.5 -31q0 -20 12 -32t31 -12t31 12.5z" />
    <glyph glyph-name="ogonek" unicode="&#x2db;" horiz-adv-x="600" 
d="M243.5 -146.5q-27.5 23.5 -27.5 58.5q0 24 13 45t44 48l76 66l35 -71l-51 -48q-10 -10 -10 -16q0 -12 21 -12h40v-94h-70q-43 0 -70.5 23.5z" />
    <glyph glyph-name="tilde" unicode="&#x2dc;" horiz-adv-x="600" 
d="M302 587q-42 14 -66 14q-38 0 -75 -22v97q37 23 76 23q16 0 33.5 -4.5t33.5 -9.5q22 -7 37 -10.5t32 -3.5q35 0 66 16v-98q-32 -17 -66 -17q-28 0 -71 15z" />
    <glyph glyph-name="hungarumlaut" unicode="&#x2dd;" horiz-adv-x="600" 
d="M291 717v-102l-188 -60v100zM496 717v-102l-187 -60v100z" />
    <glyph glyph-name="gravecomb" unicode="&#x300;" horiz-adv-x="0" 
d="M-139 716l278 -62v-100l-278 63v99z" />
    <glyph glyph-name="acutecomb" unicode="&#x301;" horiz-adv-x="0" 
d="M139 716v-99l-278 -63v100z" />
    <glyph glyph-name="uni0302" unicode="&#x302;" horiz-adv-x="0" 
d="M-1 717l140 -59v-103l-140 59l-138 -59v103z" />
    <glyph glyph-name="tildecomb" unicode="&#x303;" horiz-adv-x="0" 
d="M2 587q-42 14 -66 14q-38 0 -75 -22v97q37 23 76 23q16 0 33.5 -4.5t33.5 -9.5q22 -7 37 -10.5t32 -3.5q35 0 66 16v-98q-32 -17 -66 -17q-28 0 -71 15z" />
    <glyph glyph-name="uni0304" unicode="&#x304;" horiz-adv-x="0" 
d="M139 684v-98h-278v98h278z" />
    <glyph glyph-name="uni0306" unicode="&#x306;" horiz-adv-x="0" 
d="M-139 608v100q28 -19 64 -30.5t77 -11.5q38 0 73.5 11t63.5 31v-100q-28 -19 -63 -30t-74 -11q-81 0 -141 41z" />
    <glyph glyph-name="uni0307" unicode="&#x307;" horiz-adv-x="0" 
d="M-53 582q-21 21 -21 53q0 33 21 53.5t53 20.5q33 0 53.5 -20t20.5 -54q0 -32 -20.5 -53t-53.5 -21q-32 0 -53 21z" />
    <glyph glyph-name="uni0308" unicode="&#x308;" horiz-adv-x="0" 
d="M-138.5 588q-18.5 18 -18.5 47t18 47t47 18t47 -17.5t18 -47.5t-18 -47.5t-47 -17.5q-28 0 -46.5 18zM44 587.5q-18 17.5 -18 47.5t18 47.5t47 17.5t47 -18t18 -47t-18 -47t-47 -18t-47 17.5z" />
    <glyph glyph-name="uni030A" unicode="&#x30a;" horiz-adv-x="0" 
d="M-89.5 573.5q-34.5 32.5 -34.5 85.5t34.5 86t89.5 33q56 0 90.5 -33t34.5 -86t-34.5 -85.5t-90.5 -32.5q-55 0 -89.5 32.5zM32 627.5q12 12.5 12 31.5t-12 31t-31 12q-18 0 -30.5 -12t-12.5 -31q0 -20 12 -32t31 -12t31 12.5z" />
    <glyph glyph-name="uni030B" unicode="&#x30b;" horiz-adv-x="0" 
d="M21 717v-102l-188 -60v100zM226 717v-102l-187 -60v100z" />
    <glyph glyph-name="uni030C" unicode="&#x30c;" horiz-adv-x="0" 
d="M-139 716l138 -58l140 58v-103l-140 -58l-138 58v103z" />
    <glyph glyph-name="uni0312" unicode="&#x312;" horiz-adv-x="0" 
d="M91 717l-44 -165h-118l54 165h108z" />
    <glyph glyph-name="dotbelowcomb" unicode="&#x323;" horiz-adv-x="0" 
d="M-53 -189.5q-21 20.5 -21 53.5q0 32 21 53t53 21q33 0 53.5 -21t20.5 -53q0 -34 -20.5 -54t-53.5 -20q-32 0 -53 20.5z" />
    <glyph glyph-name="uni0326" unicode="&#x326;" horiz-adv-x="0" 
d="M57 -58l-52 -163h-105l44 163h113z" />
    <glyph glyph-name="uni0327" unicode="&#x327;" horiz-adv-x="0" 
d="M58 1l-45 -171h-116l50 191z" />
    <glyph glyph-name="uni0328" unicode="&#x328;" horiz-adv-x="0" 
d="M-139.5 -146.5q-27.5 23.5 -27.5 58.5q0 24 13 45t44 48l76 66l35 -71l-51 -48q-10 -10 -10 -16q0 -12 21 -12h40v-94h-70q-43 0 -70.5 23.5z" />
    <glyph glyph-name="uni0374" unicode="&#x374;" horiz-adv-x="284" 
d="M224 656v-16l-76 -249h-102l50 265h128z" />
    <glyph glyph-name="tonos" unicode="&#x384;" horiz-adv-x="600" 
d="M362 759l-20 -207h-105l20 207h105z" />
    <glyph glyph-name="dieresistonos" unicode="&#x385;" horiz-adv-x="600" 
d="M363 759l-20 -207h-105l20 207h105zM110 588q-18 18 -18 47t18 47t47 18t46.5 -17.5t17.5 -47.5q0 -29 -17.5 -47t-46.5 -18t-47 18zM395.5 588q-17.5 18 -17.5 47t17.5 47t46.5 18q30 0 47.5 -17.5t17.5 -47.5q0 -29 -18 -47t-47 -18t-46.5 18z" />
    <glyph glyph-name="Alphatonos" unicode="&#x386;" horiz-adv-x="499" 
d="M481 17v-17h-118l-29 127h-167l-30 -127h-118v17l163 639h137zM310 231l-60 257l-59 -257h119zM61 656l-20 -207h-105l20 207h105z" />
    <glyph glyph-name="anoteleia" unicode="&#x387;" horiz-adv-x="284" 
d="M91 377q-20 20 -20 51t20 50.5t51 19.5q32 0 51.5 -19.5t19.5 -50.5t-19.5 -51t-51.5 -20q-31 0 -51 20z" />
    <glyph glyph-name="Epsilontonos" unicode="&#x388;" horiz-adv-x="429" 
d="M402 656v-106h-235v-170h218v-105h-218v-169h235v-106h-351v656h351zM-35 656l-20 -207h-105l20 207h105z" />
    <glyph glyph-name="Etatonos" unicode="&#x389;" horiz-adv-x="499" 
d="M167 656v-276h165v276h116v-656h-116v275h-165v-275h-116v656h116zM-35 656l-20 -207h-105l20 207h105z" />
    <glyph glyph-name="Iotatonos" unicode="&#x38a;" horiz-adv-x="220" 
d="M168 656v-656h-116v656h116zM-36 656l-20 -207h-105l20 207h105z" />
    <glyph glyph-name="Omicrontonos" unicode="&#x38c;" horiz-adv-x="512" 
d="M104.5 39.5q-55.5 51.5 -55.5 140.5v296q0 88 56 140t151 52q96 0 151.5 -52t55.5 -140v-296q0 -89 -55.5 -140.5t-151.5 -51.5t-151.5 51.5zM324 118.5q24 24.5 24 69.5v279q0 46 -24 70.5t-68 24.5t-67.5 -24.5t-23.5 -70.5v-279q0 -45 23.5 -69.5t67.5 -24.5t68 24.5z
M-12 656l-20 -207h-105l20 207h105z" />
    <glyph glyph-name="Upsilontonos" unicode="&#x38e;" horiz-adv-x="454" 
d="M443 639l-158 -380v-259h-116v257l-158 382v17h113l103 -255l102 255h114v-17zM-35 656l-20 -207h-105l20 207h105z" />
    <glyph glyph-name="Omegatonos" unicode="&#x38f;" horiz-adv-x="512" 
d="M440 194q-23 -42 -63 -65v-23h86v-106h-182v207q67 18 67 88v172q0 45 -24 70t-68 25t-67.5 -24.5t-23.5 -70.5v-172q0 -36 17.5 -58.5t49.5 -29.5v-207h-183v106h86v24q-40 22 -63 64t-23 96v182q0 90 56 143t151 53t151 -53t56 -143v-182q0 -54 -23 -96zM-12 656
l-20 -207h-105l20 207h105z" />
    <glyph glyph-name="iotadieresistonos" unicode="&#x390;" horiz-adv-x="242" 
d="M84 30q-35 30 -35 102v367h111v-357q0 -40 36 -40h43v-102h-54q-66 0 -101 30zM174 759l-20 -207h-105l20 207h105zM-79 588q-18 18 -18 47t18 47t47 18t46.5 -17.5t17.5 -47.5q0 -29 -17.5 -47t-46.5 -18t-47 18zM206.5 588q-17.5 18 -17.5 47t17.5 47t46.5 18
q30 0 47.5 -17.5t17.5 -47.5q0 -29 -18 -47t-47 -18t-46.5 18z" />
    <glyph glyph-name="Alpha" unicode="&#x391;" horiz-adv-x="499" 
d="M481 17v-17h-118l-29 127h-167l-30 -127h-118v17l163 639h137zM310 231l-60 257l-59 -257h119z" />
    <glyph glyph-name="Beta" unicode="&#x392;" horiz-adv-x="483" 
d="M429 276.5q22 -36.5 22 -87.5v-20q0 -79 -50 -124t-138 -45h-212v656h201q88 0 137.5 -43.5t49.5 -121.5v-20q0 -96 -74 -138q42 -20 64 -56.5zM167 551v-168h72q84 0 84 77v18q0 37 -21 55t-64 18h-71zM335 200q0 38 -22 58.5t-63 20.5h-83v-174h82q86 0 86 77v18z" />
    <glyph glyph-name="Gamma" unicode="&#x393;" horiz-adv-x="416" 
d="M406 656v-106h-239v-550h-116v656h355z" />
    <glyph glyph-name="uni0394" unicode="&#x394;" horiz-adv-x="481" 
d="M452 106v-106h-423v106l143 550h136zM135 106h209l-104 433z" />
    <glyph glyph-name="Epsilon" unicode="&#x395;" horiz-adv-x="429" 
d="M402 656v-106h-235v-170h218v-105h-218v-169h235v-106h-351v656h351z" />
    <glyph glyph-name="Zeta" unicode="&#x396;" horiz-adv-x="426" 
d="M387 550l-227 -444h227v-106h-348v106l228 444h-218v106h338v-106z" />
    <glyph glyph-name="Eta" unicode="&#x397;" horiz-adv-x="499" 
d="M167 656v-276h165v276h116v-656h-116v275h-165v-275h-116v656h116z" />
    <glyph glyph-name="Theta" unicode="&#x398;" horiz-adv-x="512" 
d="M407 616q56 -52 56 -140v-296q0 -88 -56 -140t-151 -52t-151 51.5t-56 140.5v296q0 89 56 140.5t151 51.5t151 -52zM186 537.5q-25 -25.5 -25 -70.5v-86h191v86q0 45 -25 70.5t-71 25.5q-45 0 -70 -25.5zM327 118.5q25 25.5 25 70.5v87h-191v-87q0 -45 25 -70.5t70 -25.5
q46 0 71 25.5z" />
    <glyph glyph-name="Iota" unicode="&#x399;" horiz-adv-x="220" 
d="M168 656v-656h-116v656h116z" />
    <glyph glyph-name="Kappa" unicode="&#x39a;" horiz-adv-x="496" 
d="M468 17v-17h-119l-127 253l-55 -89v-164h-116v656h116v-285l177 285h121v-17l-172 -276z" />
    <glyph glyph-name="Lambda" unicode="&#x39b;" horiz-adv-x="498" 
d="M479 17v-17h-117l-113 469l-113 -469h-118v17l163 639h135z" />
    <glyph glyph-name="Mu" unicode="&#x39c;" horiz-adv-x="629" 
d="M578 0h-112v427l-111 -427h-81l-111 424v-424h-112v656h151l112 -423l112 423h152v-656z" />
    <glyph glyph-name="Nu" unicode="&#x39d;" horiz-adv-x="499" 
d="M448 656v-656h-123l-163 412v-412h-111v656h123l163 -418v418h111z" />
    <glyph glyph-name="Xi" unicode="&#x39e;" horiz-adv-x="453" 
d="M282 550v-170h124v-105h-124v-169h144v-106h-399v106h145v169h-125v105h125v170h-145v106h399v-106h-144z" />
    <glyph glyph-name="Omicron" unicode="&#x39f;" horiz-adv-x="512" 
d="M104.5 39.5q-55.5 51.5 -55.5 140.5v296q0 88 56 140t151 52q96 0 151.5 -52t55.5 -140v-296q0 -89 -55.5 -140.5t-151.5 -51.5t-151.5 51.5zM324 118.5q24 24.5 24 69.5v279q0 46 -24 70.5t-68 24.5t-67.5 -24.5t-23.5 -70.5v-279q0 -45 23.5 -69.5t67.5 -24.5t68 24.5z
" />
    <glyph glyph-name="Pi" unicode="&#x3a0;" horiz-adv-x="504" 
d="M453 656v-656h-116v549h-170v-549h-116v656h402z" />
    <glyph glyph-name="Rho" unicode="&#x3a1;" horiz-adv-x="482" 
d="M260 656q95 0 145.5 -48.5t50.5 -139.5v-20q0 -93 -50 -141t-146 -48h-93v-259h-116v656h209zM317 384.5q23 19.5 23 63.5v20q0 82 -89 82h-84v-185h84q43 0 66 19.5z" />
    <glyph glyph-name="Sigma" unicode="&#x3a3;" horiz-adv-x="429" 
d="M402 550h-225l140 -194v-55l-140 -195h225v-106h-357v107l160 221l-160 221v107h357v-106z" />
    <glyph glyph-name="Tau" unicode="&#x3a4;" horiz-adv-x="404" 
d="M10 550v106h384v-106h-134v-550h-116v550h-134z" />
    <glyph glyph-name="Upsilon" unicode="&#x3a5;" horiz-adv-x="454" 
d="M443 639l-158 -380v-259h-116v257l-158 382v17h113l103 -255l102 255h114v-17z" />
    <glyph glyph-name="Phi" unicode="&#x3a6;" horiz-adv-x="726" 
d="M616.5 538q60.5 -57 60.5 -156v-109q0 -98 -61 -155t-166 -57h-29v-101h-116v101h-29q-105 0 -166 57t-61 155v109q0 98 61 155.5t166 57.5h29v101h116v-101h29q106 0 166.5 -57zM276 167h30v322h-30q-111 0 -111 -108v-107q0 -107 111 -107zM562 381q0 108 -112 108h-30
v-322h30q112 0 112 107v107z" />
    <glyph glyph-name="Chi" unicode="&#x3a7;" horiz-adv-x="496" 
d="M468 17v-17h-118l-102 231l-103 -231h-117v17l144 315l-141 307v17h117l100 -223l98 223h118v-17l-140 -307z" />
    <glyph glyph-name="Psi" unicode="&#x3a8;" horiz-adv-x="692" 
d="M653 656v-293q0 -96 -52.5 -146.5t-151.5 -50.5h-45v-166h-115v166h-45q-99 0 -151.5 50.5t-52.5 146.5v293h116v-292q0 -44 23 -68t66 -24h44v384h115v-384h44q43 0 66 23.5t23 68.5v292h116z" />
    <glyph glyph-name="uni03A9" unicode="&#x3a9;" horiz-adv-x="512" 
d="M440 194q-23 -42 -63 -65v-23h86v-106h-182v207q67 18 67 88v172q0 45 -24 70t-68 25t-67.5 -24.5t-23.5 -70.5v-172q0 -36 17.5 -58.5t49.5 -29.5v-207h-183v106h86v24q-40 22 -63 64t-23 96v182q0 90 56 143t151 53t151 -53t56 -143v-182q0 -54 -23 -96z" />
    <glyph glyph-name="Iotadieresis" unicode="&#x3aa;" horiz-adv-x="220" 
d="M168 656v-656h-116v656h116zM-28.5 745q-18.5 18 -18.5 47t18 47t47 18t47 -17.5t18 -47.5t-18 -47.5t-47 -17.5q-28 0 -46.5 18zM154 744.5q-18 17.5 -18 47.5t18 47.5t47 17.5t47 -18t18 -47t-18 -47t-47 -18t-47 17.5z" />
    <glyph glyph-name="Upsilondieresis" unicode="&#x3ab;" horiz-adv-x="454" 
d="M443 639l-158 -380v-259h-116v257l-158 382v17h113l103 -255l102 255h114v-17zM88.5 745q-18.5 18 -18.5 47t18 47t47 18t47 -17.5t18 -47.5t-18 -47.5t-47 -17.5q-28 0 -46.5 18zM271 744.5q-18 17.5 -18 47.5t18 47.5t47 17.5t47 -18t18 -47t-18 -47t-47 -18t-47 17.5z
" />
    <glyph glyph-name="alphatonos" unicode="&#x3ac;" horiz-adv-x="477" 
d="M472 102v-102h-50q-62 0 -96 36q-43 -48 -124 -48q-75 0 -118.5 41.5t-43.5 112.5v215q0 70 42.5 111.5t114.5 41.5q67 0 109 -39l4 28h97v-357q0 -40 36 -40h29zM263 104q20 10 33 29v233q-13 18 -32.5 29t-42.5 11q-32 0 -50.5 -19.5t-18.5 -52.5v-169q0 -32 19 -51.5
t51 -19.5q21 0 41 10zM301 759l-20 -207h-105l20 207h105z" />
    <glyph glyph-name="epsilontonos" unicode="&#x3ad;" horiz-adv-x="422" 
d="M288 334v18q0 28 -20 43t-56 15q-34 0 -52 -13t-18 -38v-14q0 -22 16.5 -33t48.5 -11h71v-97h-74q-63 0 -63 -48v-14q0 -25 19 -38.5t55 -13.5q74 0 74 58v18h110v-18q0 -79 -47 -119.5t-139 -40.5q-86 0 -134.5 37.5t-48.5 104.5v20q0 72 64 102q-63 31 -63 99v20
q0 65 49.5 102t134.5 37q87 0 135.5 -42t48.5 -116v-18h-111zM287 758l-20 -207h-105l20 207h105z" />
    <glyph glyph-name="etatonos" unicode="&#x3ae;" horiz-adv-x="502" 
d="M393.5 467.5q43.5 -43.5 43.5 -117.5v-520h-113v501q0 75 -65 75q-24 0 -43.5 -10t-32.5 -28v-368h-112v353q0 39 -36 39h-30v107h51q65 0 98 -35q45 47 122 47q74 0 117.5 -43.5zM344 759l-20 -207h-105l20 207h105z" />
    <glyph glyph-name="iotatonos" unicode="&#x3af;" horiz-adv-x="242" 
d="M84 30q-35 30 -35 102v367h111v-357q0 -40 36 -40h43v-102h-54q-66 0 -101 30zM177 759l-20 -207h-105l20 207h105z" />
    <glyph glyph-name="upsilondieresistonos" unicode="&#x3b0;" horiz-adv-x="457" 
d="M94.5 32.5q-48.5 44.5 -48.5 125.5v341h111v-339q0 -33 19.5 -51t52.5 -18t51.5 18.5t18.5 50.5v339h112v-341q0 -81 -47 -125.5t-133 -44.5q-88 0 -136.5 44.5zM299 759l-20 -207h-105l20 207h105zM46 588q-18 18 -18 47t18 47t47 18t46.5 -17.5t17.5 -47.5
q0 -29 -17.5 -47t-46.5 -18t-47 18zM331.5 588q-17.5 18 -17.5 47t17.5 47t46.5 18q30 0 47.5 -17.5t17.5 -47.5q0 -29 -18 -47t-47 -18t-46.5 18z" />
    <glyph glyph-name="alpha" unicode="&#x3b1;" horiz-adv-x="477" 
d="M472 102v-102h-50q-62 0 -96 36q-43 -48 -124 -48q-75 0 -118.5 41.5t-43.5 112.5v215q0 70 42.5 111.5t114.5 41.5q67 0 109 -39l4 28h97v-357q0 -40 36 -40h29zM263 104q20 10 33 29v233q-13 18 -32.5 29t-42.5 11q-32 0 -50.5 -19.5t-18.5 -52.5v-169q0 -32 19 -51.5
t51 -19.5q21 0 41 10z" />
    <glyph glyph-name="beta" unicode="&#x3b2;" horiz-adv-x="457" 
d="M430 210v-47q0 -81 -46.5 -128t-127.5 -47q-54 0 -96 21v-179h-112v700q0 83 49 130.5t137 47.5q86 0 134.5 -49t48.5 -136v-43q0 -92 -61 -130q74 -39 74 -140zM319 225q0 34 -19.5 53t-54.5 19h-33v102h26q67 0 67 73v57q0 36 -18.5 54.5t-52.5 18.5q-35 0 -54.5 -19.5
t-19.5 -54.5v-398q27 -36 78 -36q38 0 59.5 19.5t21.5 54.5v57z" />
    <glyph glyph-name="gamma" unicode="&#x3b3;" 
d="M430 483l-152 -506v-147h-111v151l-151 502v16h110l97 -345l96 345h111v-16z" />
    <glyph glyph-name="delta" unicode="&#x3b4;" 
d="M386 397q20 -39 20 -90v-148q0 -81 -48.5 -126t-134.5 -45t-134.5 45.5t-48.5 125.5v156q0 70 33 112t98 54l-112 107v108h324v-102h-184l114 -108q53 -50 73 -89zM295 309q0 29 -8 48t-30 42h-1q-50 0 -77 -22.5t-27 -64.5v-150q0 -32 19.5 -51t51.5 -19q33 0 52.5 19
t19.5 51v147z" />
    <glyph glyph-name="epsilon" unicode="&#x3b5;" horiz-adv-x="422" 
d="M288 334v18q0 28 -20 43t-56 15q-34 0 -52 -13t-18 -38v-14q0 -22 16.5 -33t48.5 -11h71v-97h-74q-63 0 -63 -48v-14q0 -25 19 -38.5t55 -13.5q74 0 74 58v18h110v-18q0 -79 -47 -119.5t-139 -40.5q-86 0 -134.5 37.5t-48.5 104.5v20q0 72 64 102q-63 31 -63 99v20
q0 65 49.5 102t134.5 37q87 0 135.5 -42t48.5 -116v-18h-111z" />
    <glyph glyph-name="zeta" unicode="&#x3b6;" horiz-adv-x="386" 
d="M334 68q36 -34 36 -94v-16q0 -60 -36 -94t-100 -34h-64v102h55q20 0 28.5 7t8.5 23v6q0 17 -9 24.5t-28 7.5h-25q-75 0 -121 45t-46 118v56q0 33 5.5 57t24 58.5t58.5 89.5l122 170h-200v102h325v-102l-167 -238q-33 -47 -45 -76t-12 -60v-40q0 -36 20 -57t54 -21h16
q64 0 100 -34z" />
    <glyph glyph-name="eta" unicode="&#x3b7;" horiz-adv-x="483" 
d="M393.5 467.5q43.5 -43.5 43.5 -117.5v-520h-113v501q0 75 -65 75q-24 0 -43.5 -10t-32.5 -28v-368h-112v353q0 39 -36 39h-30v107h51q65 0 98 -35q45 47 122 47q74 0 117.5 -43.5z" />
    <glyph glyph-name="theta" unicode="&#x3b8;" 
d="M354.5 622.5q47.5 -45.5 47.5 -126.5v-337q0 -81 -48 -126t-132 -45t-131.5 45t-47.5 126v337q0 81 47.5 126.5t131.5 45.5q85 0 132.5 -45.5zM171.5 543.5q-19.5 -20.5 -19.5 -54.5v-111h141v111q0 34 -20 54.5t-51 20.5t-50.5 -20.5zM273 112.5q20 20.5 20 54.5v111
h-141v-111q0 -34 19.5 -54.5t50.5 -20.5t51 20.5z" />
    <glyph glyph-name="iota" unicode="&#x3b9;" horiz-adv-x="242" 
d="M84 30q-35 30 -35 102v367h111v-357q0 -40 36 -40h43v-102h-54q-66 0 -101 30z" />
    <glyph glyph-name="kappa" unicode="&#x3ba;" 
d="M435 16v-16h-120l-99 191l-56 -78v-113h-112v499h112v-205l147 205h122v-16l-138 -194z" />
    <glyph glyph-name="lambda" unicode="&#x3bb;" horiz-adv-x="474" 
d="M458 16v-16h-111l-104 345l-106 -345h-111v16l162 496l-12 37q-8 25 -18.5 35t-32.5 10h-96v102h107q61 0 94.5 -25.5t52.5 -88.5z" />
    <glyph glyph-name="uni03BC" unicode="&#x3bc;" horiz-adv-x="484" 
d="M480 102v-102h-52q-61 0 -96 33q-17 -21 -42.5 -33t-55.5 -12q-46 0 -74 20v-178h-112v669h112v-332q0 -36 18.5 -54.5t53.5 -18.5q22 0 40.5 9.5t29.5 26.5v369h111v-357q0 -40 37 -40h30z" />
    <glyph glyph-name="nu" unicode="&#x3bd;" 
d="M430 499v-16l-142 -483h-130l-142 483v16h110l97 -348l96 348h111z" />
    <glyph glyph-name="xi" unicode="&#x3be;" horiz-adv-x="430" 
d="M302 503v29q0 32 -19 51t-52 19q-34 0 -53 -19t-19 -51v-71q0 -31 19 -47.5t56 -16.5h85v-100h-95q-37 0 -57 -20t-20 -56v-44q0 -75 71 -75h32q64 0 100 -34t36 -94v-16q0 -60 -36 -94t-100 -34h-64v102h55q20 0 28.5 7t8.5 23v6q0 17 -9 24.5t-28 7.5h-31
q-77 0 -125.5 43t-48.5 111v58q0 99 82 132q-33 19 -51.5 50t-18.5 70v72q0 82 47.5 127t135.5 45q87 0 134.5 -45t47.5 -127v-33h-111z" />
    <glyph glyph-name="omicron" unicode="&#x3bf;" 
d="M89.5 31.5q-49.5 43.5 -49.5 127.5v180q0 84 49.5 128t133.5 44t133.5 -43.5t49.5 -128.5v-180q0 -84 -49.5 -127.5t-133.5 -43.5t-133.5 43.5zM274.5 112q19.5 18 19.5 52v171q0 34 -20 52.5t-51 18.5t-51 -18.5t-20 -52.5v-171q0 -33 20 -51.5t51 -18.5q32 0 51.5 18z
" />
    <glyph glyph-name="pi" unicode="&#x3c0;" horiz-adv-x="539" 
d="M6 392v107h525v-107h-97v-247q0 -21 8 -32t27 -11h49v-102h-70q-60 0 -93 35t-33 98v259h-118v-392h-112v392h-86z" />
    <glyph glyph-name="rho" unicode="&#x3c1;" horiz-adv-x="451" 
d="M363.5 466q48.5 -45 48.5 -127v-180q0 -76 -45 -123.5t-116 -47.5q-56 0 -94 26v-184h-111v509q0 81 48 126.5t135 45.5q86 0 134.5 -45zM300 335q0 32 -19 51.5t-52 19.5t-52.5 -19.5t-19.5 -51.5v-204q13 -17 32 -27t41 -10q32 0 51 19t19 52v170z" />
    <glyph glyph-name="uni03C2" unicode="&#x3c2;" horiz-adv-x="436" 
d="M261 -68q20 0 28.5 7t8.5 23v6q0 17 -9 24.5t-28 7.5h-42q-83 0 -131 45.5t-48 124.5v169q0 81 48.5 126t134.5 45q87 0 135.5 -45t48.5 -126v-55h-112v51q0 32 -19.5 51.5t-52.5 19.5q-32 0 -51.5 -19.5t-19.5 -51.5v-154q0 -37 22 -58t63 -21h33q64 0 100 -34t36 -94
v-16q0 -60 -36 -94t-100 -34h-64v102h55z" />
    <glyph glyph-name="sigma" unicode="&#x3c3;" horiz-adv-x="456" 
d="M451 392h-70q26 -32 26 -87v-146q0 -80 -48.5 -125.5t-135.5 -45.5q-86 0 -134.5 45.5t-48.5 125.5v177q0 79 48 121t139 42h224v-107zM266 392h-39q-75 0 -75 -71v-157q0 -32 19.5 -51t51.5 -19q33 0 52.5 19t19.5 51v153q0 49 -29 75z" />
    <glyph glyph-name="tau" unicode="&#x3c4;" horiz-adv-x="366" 
d="M142 39.5q-39 39.5 -39 110.5v242h-97v107h337v-107h-128v-231q0 -28 14 -43.5t39 -15.5h62v-102h-77q-72 0 -111 39.5z" />
    <glyph glyph-name="upsilon" unicode="&#x3c5;" horiz-adv-x="457" 
d="M94.5 32.5q-48.5 44.5 -48.5 125.5v341h111v-339q0 -33 19.5 -51t52.5 -18t51.5 18.5t18.5 50.5v339h112v-341q0 -81 -47 -125.5t-133 -44.5q-88 0 -136.5 44.5z" />
    <glyph glyph-name="phi" unicode="&#x3c6;" horiz-adv-x="614" 
d="M520 448q53 -51 53 -139v-119q0 -88 -53 -139t-144 -51h-12v-170h-111v170h-16q-90 0 -143 51t-53 139v119q0 88 53 139t144 51h15v184h111v-184h12q91 0 144 -51zM253 102v295h-17q-40 0 -62.5 -24.5t-22.5 -68.5v-109q0 -43 22.5 -68t62.5 -25h17zM464 304
q0 44 -22.5 68.5t-63.5 24.5h-15v-295h15q41 0 63.5 24.5t22.5 68.5v109z" />
    <glyph glyph-name="chi" unicode="&#x3c7;" horiz-adv-x="434" 
d="M417 -154v-16h-110l-90 227l-88 -227h-111v16l130 321l-127 316v16h109l87 -222l87 222h107v-16l-127 -316z" />
    <glyph glyph-name="psi" unicode="&#x3c8;" horiz-adv-x="636" 
d="M590 498v-318q0 -87 -49 -133.5t-140 -46.5h-28v-170h-110v170h-28q-91 0 -140 46.5t-49 133.5v318h110v-313q0 -40 20 -61t59 -21h28v594h110v-594h28q39 0 59.5 21t20.5 61v313h109z" />
    <glyph glyph-name="omega" unicode="&#x3c9;" horiz-adv-x="664" 
d="M580 453.5q44 -45.5 44 -131.5v-164q0 -78 -46.5 -124t-125.5 -46q-81 0 -120 54q-40 -54 -120 -54q-79 0 -125.5 46t-46.5 124v164q0 86 44 131.5t127 45.5h16v-102h-13q-31 0 -47 -18t-16 -53v-159q0 -36 19 -56t51 -20q38 0 56 31v245h111v-247q18 -29 55 -29
q32 0 51 20t19 56v159q0 35 -16 53t-47 18h-13v102h16q83 0 127 -45.5z" />
    <glyph glyph-name="iotadieresis" unicode="&#x3ca;" horiz-adv-x="242" 
d="M84 30q-35 30 -35 102v367h111v-357q0 -40 36 -40h43v-102h-54q-66 0 -101 30zM-33.5 588q-18.5 18 -18.5 47t18 47t47 18t47 -17.5t18 -47.5t-18 -47.5t-47 -17.5q-28 0 -46.5 18zM149 587.5q-18 17.5 -18 47.5t18 47.5t47 17.5t47 -18t18 -47t-18 -47t-47 -18t-47 17.5
z" />
    <glyph glyph-name="upsilondieresis" unicode="&#x3cb;" horiz-adv-x="457" 
d="M94.5 32.5q-48.5 44.5 -48.5 125.5v341h111v-339q0 -33 19.5 -51t52.5 -18t51.5 18.5t18.5 50.5v339h112v-341q0 -81 -47 -125.5t-133 -44.5q-88 0 -136.5 44.5zM91.5 588q-18.5 18 -18.5 47t18 47t47 18t47 -17.5t18 -47.5t-18 -47.5t-47 -17.5q-28 0 -46.5 18z
M274 587.5q-18 17.5 -18 47.5t18 47.5t47 17.5t47 -18t18 -47t-18 -47t-47 -18t-47 17.5z" />
    <glyph glyph-name="omicrontonos" unicode="&#x3cc;" 
d="M89.5 31.5q-49.5 43.5 -49.5 127.5v180q0 84 49.5 128t133.5 44t133.5 -43.5t49.5 -128.5v-180q0 -84 -49.5 -127.5t-133.5 -43.5t-133.5 43.5zM274.5 112q19.5 18 19.5 52v171q0 34 -20 52.5t-51 18.5t-51 -18.5t-20 -52.5v-171q0 -33 20 -51.5t51 -18.5q32 0 51.5 18z
M295 759l-20 -207h-105l20 207h105z" />
    <glyph glyph-name="upsilontonos" unicode="&#x3cd;" horiz-adv-x="457" 
d="M94.5 32.5q-48.5 44.5 -48.5 125.5v341h111v-339q0 -33 19.5 -51t52.5 -18t51.5 18.5t18.5 50.5v339h112v-341q0 -81 -47 -125.5t-133 -44.5q-88 0 -136.5 44.5zM302 759l-20 -207h-105l20 207h105z" />
    <glyph glyph-name="omegatonos" unicode="&#x3ce;" horiz-adv-x="664" 
d="M580 453.5q44 -45.5 44 -131.5v-164q0 -78 -46.5 -124t-125.5 -46q-81 0 -120 54q-40 -54 -120 -54q-79 0 -125.5 46t-46.5 124v164q0 86 44 131.5t127 45.5h16v-102h-13q-31 0 -47 -18t-16 -53v-159q0 -36 19 -56t51 -20q38 0 56 31v245h111v-247q18 -29 55 -29
q32 0 51 20t19 56v159q0 35 -16 53t-47 18h-13v102h16q83 0 127 -45.5zM404 759l-20 -207h-105l20 207h105z" />
    <glyph glyph-name="uni0400" unicode="&#x400;" horiz-adv-x="429" 
d="M402 656v-106h-235v-170h218v-105h-218v-169h235v-106h-351v656h351zM87 873l278 -62v-100l-278 63v99z" />
    <glyph glyph-name="uni0401" unicode="&#x401;" horiz-adv-x="429" 
d="M402 656v-106h-235v-170h218v-105h-218v-169h235v-106h-351v656h351zM87.5 745q-18.5 18 -18.5 47t18 47t47 18t47 -17.5t18 -47.5t-18 -47.5t-47 -17.5q-28 0 -46.5 18zM270 744.5q-18 17.5 -18 47.5t18 47.5t47 17.5t47 -18t18 -47t-18 -47t-47 -18t-47 17.5z" />
    <glyph glyph-name="uni0402" unicode="&#x402;" horiz-adv-x="585" 
d="M490.5 358q49.5 -44 49.5 -130v-55q0 -83 -48 -128t-138 -45h-25v105h21q36 0 55 19.5t19 54.5v36q0 40 -22.5 61.5t-65.5 21.5q-37 0 -80 -8v-290h-116v550h-130v106h417v-106h-171v-159q52 11 89 11q96 0 145.5 -44z" />
    <glyph glyph-name="uni0403" unicode="&#x403;" horiz-adv-x="396" 
d="M386 656v-106h-219v-550h-116v656h335zM371 873v-99l-278 -63v100z" />
    <glyph glyph-name="uni0404" unicode="&#x404;" horiz-adv-x="502" 
d="M349 431v30q0 49 -24 75t-69 26q-44 0 -68.5 -24.5t-24.5 -70.5v-86h153v-105h-153v-88q0 -45 24.5 -69.5t68.5 -24.5q45 0 69 26.5t24 75.5v30h114v-30q0 -208 -206 -208q-96 0 -152 51.5t-56 140.5v296q0 89 56 140.5t152 51.5q100 0 153 -53.5t53 -153.5v-30h-114z
" />
    <glyph glyph-name="uni0405" unicode="&#x405;" horiz-adv-x="458" 
d="M81.5 39q-50.5 51 -50.5 147v30h113v-30q0 -93 83 -93q40 0 62.5 20t22.5 56v10q0 32 -18 54t-60 41l-58 26q-70 31 -104 73t-34 100v20q0 79 52.5 127t142.5 48q88 0 137.5 -47t49.5 -133v-30h-113v30q0 37 -17.5 56.5t-58.5 19.5q-37 0 -57.5 -17.5t-20.5 -49.5v-10
q0 -28 15.5 -48.5t57.5 -38.5l60 -26q73 -32 107.5 -76t34.5 -106v-20q0 -84 -53.5 -134t-147.5 -50q-95 0 -145.5 51z" />
    <glyph glyph-name="uni0406" unicode="&#x406;" horiz-adv-x="220" 
d="M168 656v-656h-116v656h116z" />
    <glyph glyph-name="uni0407" unicode="&#x407;" horiz-adv-x="220" 
d="M168 656v-656h-116v656h116zM-28.5 745q-18.5 18 -18.5 47t18 47t47 18t47 -17.5t18 -47.5t-18 -47.5t-47 -17.5q-28 0 -46.5 18zM154 744.5q-18 17.5 -18 47.5t18 47.5t47 17.5t47 -18t18 -47t-18 -47t-47 -18t-47 17.5z" />
    <glyph glyph-name="uni0408" unicode="&#x408;" horiz-adv-x="459" 
d="M79 37.5q-50 49.5 -50 139.5v84h116v-84q0 -40 19 -61.5t55 -21.5t55 19.5t19 56.5v380h-192v106h307v-496q0 -79 -51 -125.5t-138 -46.5q-90 0 -140 49.5z" />
    <glyph glyph-name="uni0409" unicode="&#x409;" horiz-adv-x="769" 
d="M693 359.5q50 -47.5 50 -139.5v-33q0 -92 -50 -139.5t-146 -47.5h-202v549h-134l-5 -361q-1 -95 -41.5 -141.5t-121.5 -46.5h-40v106h24q36 0 53 22.5t18 71.5l5 349h-2v107h360v-249h86q96 0 146 -47.5zM627 221q0 41 -22 61t-67 20h-77v-197h77q46 0 67.5 20.5
t21.5 62.5v33z" />
    <glyph glyph-name="uni040A" unicode="&#x40a;" horiz-adv-x="758" 
d="M167 656v-267h164v267h116v-267h89q196 0 196 -178v-33q0 -87 -50 -132.5t-146 -45.5h-205v284h-164v-284h-116v656h116zM616 179v33q0 39 -20.5 55.5t-68.5 16.5h-80v-179h80q89 0 89 74z" />
    <glyph glyph-name="uni040B" unicode="&#x40b;" horiz-adv-x="579" 
d="M491.5 348.5q44.5 -46.5 44.5 -134.5v-214h-116v206q0 42 -20.5 62t-63.5 20q-26 0 -81 -5v-283h-116v550h-129v106h416v-106h-171v-165q50 10 108 10q84 0 128.5 -46.5z" />
    <glyph glyph-name="uni040C" unicode="&#x40c;" horiz-adv-x="492" 
d="M464 17v-17h-121l-120 275h-56v-275h-116v656h116v-276h55l118 276h118v-17l-132 -310zM384 873v-99l-278 -63v100z" />
    <glyph glyph-name="uni040D" unicode="&#x40d;" horiz-adv-x="504" 
d="M165 656v-413l170 413h118v-656h-114v414l-168 -414h-120v656h114zM115 873l278 -62v-100l-278 63v99z" />
    <glyph glyph-name="uni040E" unicode="&#x40e;" horiz-adv-x="459" 
d="M461 656v-17l-168 -528q-19 -58 -54.5 -84.5t-95.5 -26.5h-78v106h71q18 0 29.5 7.5t18.5 26.5l-169 499v17h115l113 -361l106 361h112zM133 751q-37 33 -37 91v16h98v-16q0 -14 11 -22.5t30 -8.5t30 8.5t11 22.5v16h98v-16q0 -58 -37 -91t-102 -33t-102 33z" />
    <glyph glyph-name="uni040F" unicode="&#x40f;" horiz-adv-x="500" 
d="M449 0h-142v-133h-114v133h-142v656h116v-549h166v549h116v-656z" />
    <glyph glyph-name="uni0410" unicode="&#x410;" horiz-adv-x="499" 
d="M481 17v-17h-118l-29 127h-167l-30 -127h-118v17l163 639h137zM310 231l-60 257l-59 -257h119z" />
    <glyph glyph-name="uni0411" unicode="&#x411;" horiz-adv-x="491" 
d="M416 656v-106h-249v-158h93q97 0 146.5 -46t49.5 -135v-30q0 -89 -49.5 -135t-146.5 -46h-209v656h365zM317.5 122.5q22.5 17.5 22.5 58.5v30q0 36 -20 56t-69 20h-84v-182h84q44 0 66.5 17.5z" />
    <glyph glyph-name="uni0412" unicode="&#x412;" horiz-adv-x="483" 
d="M429 276.5q22 -36.5 22 -87.5v-20q0 -79 -50 -124t-138 -45h-212v656h201q88 0 137.5 -43.5t49.5 -121.5v-20q0 -96 -74 -138q42 -20 64 -56.5zM167 551v-168h72q84 0 84 77v18q0 37 -21 55t-64 18h-71zM335 200q0 38 -22 58.5t-63 20.5h-83v-174h82q86 0 86 77v18z" />
    <glyph glyph-name="uni0413" unicode="&#x413;" horiz-adv-x="396" 
d="M386 656v-106h-219v-550h-116v656h335z" />
    <glyph glyph-name="uni0414" unicode="&#x414;" horiz-adv-x="553" 
d="M531 106v-239h-115v133h-287v-133h-116v239h54q37 84 39 206l4 344h361v-550h60zM179 106h177v443h-139l-4 -246q-1 -106 -34 -197z" />
    <glyph glyph-name="uni0415" unicode="&#x415;" horiz-adv-x="429" 
d="M402 656v-106h-235v-170h218v-105h-218v-169h235v-106h-351v656h351z" />
    <glyph glyph-name="uni0416" unicode="&#x416;" horiz-adv-x="744" 
d="M716 17v-17h-120l-111 275h-55v-275h-116v275h-56l-110 -275h-120v17l126 313l-121 309v17h119l107 -276h55v276h116v-276h56l107 276h118v-17l-120 -310z" />
    <glyph glyph-name="uni0417" unicode="&#x417;" horiz-adv-x="487" 
d="M432 278q20 -33 20 -77v-35q0 -52 -26 -92.5t-72.5 -63t-106.5 -22.5q-103 0 -156 52t-53 153v32h116v-32q0 -53 22 -76t73 -23q39 0 63 23.5t24 61.5v20q0 37 -22 57t-63 20h-59v105h63q33 0 52.5 20.5t19.5 55.5v20q0 39 -22 62t-60 23q-87 0 -87 -102v-30h-116v30
q0 101 52 154.5t150 53.5q58 0 103 -22.5t70.5 -63.5t25.5 -93v-35q0 -40 -18 -71.5t-50 -51.5q37 -20 57 -53z" />
    <glyph glyph-name="uni0418" unicode="&#x418;" horiz-adv-x="504" 
d="M165 656v-413l170 413h118v-656h-114v414l-168 -414h-120v656h114z" />
    <glyph glyph-name="uni0419" unicode="&#x419;" horiz-adv-x="504" 
d="M165 656v-413l170 413h118v-656h-114v414l-168 -414h-120v656h114zM152 751q-37 33 -37 91v16h98v-16q0 -14 11 -22.5t30 -8.5t30 8.5t11 22.5v16h98v-16q0 -58 -37 -91t-102 -33t-102 33z" />
    <glyph glyph-name="uni041A" unicode="&#x41a;" horiz-adv-x="492" 
d="M464 17v-17h-121l-120 275h-56v-275h-116v656h116v-276h55l118 276h118v-17l-132 -310z" />
    <glyph glyph-name="uni041B" unicode="&#x41b;" horiz-adv-x="515" 
d="M464 0h-116v549h-137l-5 -361q-1 -95 -41.5 -141.5t-121.5 -46.5h-40v106h24q36 0 53 22.5t18 71.5l5 349h-2v107h363v-656z" />
    <glyph glyph-name="uni041C" unicode="&#x41c;" horiz-adv-x="629" 
d="M578 0h-112v427l-111 -427h-81l-111 424v-424h-112v656h151l112 -423l112 423h152v-656z" />
    <glyph glyph-name="uni041D" unicode="&#x41d;" horiz-adv-x="499" 
d="M167 656v-276h165v276h116v-656h-116v275h-165v-275h-116v656h116z" />
    <glyph glyph-name="uni041E" unicode="&#x41e;" horiz-adv-x="512" 
d="M104.5 39.5q-55.5 51.5 -55.5 140.5v296q0 88 56 140t151 52q96 0 151.5 -52t55.5 -140v-296q0 -89 -55.5 -140.5t-151.5 -51.5t-151.5 51.5zM324 118.5q24 24.5 24 69.5v279q0 46 -24 70.5t-68 24.5t-67.5 -24.5t-23.5 -70.5v-279q0 -45 23.5 -69.5t67.5 -24.5t68 24.5z
" />
    <glyph glyph-name="uni041F" unicode="&#x41f;" horiz-adv-x="504" 
d="M453 656v-656h-116v549h-170v-549h-116v656h402z" />
    <glyph glyph-name="uni0420" unicode="&#x420;" horiz-adv-x="482" 
d="M260 656q95 0 145.5 -48.5t50.5 -139.5v-20q0 -93 -50 -141t-146 -48h-93v-259h-116v656h209zM317 384.5q23 19.5 23 63.5v20q0 82 -89 82h-84v-185h84q43 0 66 19.5z" />
    <glyph glyph-name="uni0421" unicode="&#x421;" horiz-adv-x="502" 
d="M105 39.5q-56 51.5 -56 140.5v296q0 89 56 140.5t152 51.5q206 0 206 -216v-61h-116v61q0 56 -22 83t-69 27q-44 0 -67.5 -24.5t-23.5 -70.5v-279q0 -46 23.5 -70t67.5 -24q91 0 91 105v61h116v-61q0 -105 -52 -158t-154 -53q-96 0 -152 51.5z" />
    <glyph glyph-name="uni0422" unicode="&#x422;" horiz-adv-x="404" 
d="M10 550v106h384v-106h-134v-550h-116v550h-134z" />
    <glyph glyph-name="uni0423" unicode="&#x423;" horiz-adv-x="459" 
d="M461 656v-17l-168 -528q-19 -58 -54.5 -84.5t-95.5 -26.5h-78v106h71q18 0 29.5 7.5t18.5 26.5l-169 499v17h115l113 -361l106 361h112z" />
    <glyph glyph-name="uni0424" unicode="&#x424;" horiz-adv-x="628" 
d="M547 545q55 -55 55 -163v-109q0 -107 -55 -161.5t-163 -54.5h-12v-69h-116v69h-12q-108 0 -163 54.5t-55 161.5v109q0 108 55 163t163 55h12v68h116v-68h12q108 0 163 -55zM165 191q26 -28 79 -28h14v331h-14q-54 0 -79.5 -28.5t-25.5 -87.5v-101q0 -58 26 -86zM489 378
q0 59 -25.5 87.5t-79.5 28.5h-14v-331h14q53 0 79 28t26 86v101z" />
    <glyph glyph-name="uni0425" unicode="&#x425;" horiz-adv-x="496" 
d="M468 17v-17h-118l-102 231l-103 -231h-117v17l144 315l-141 307v17h117l100 -223l98 223h118v-17l-140 -307z" />
    <glyph glyph-name="uni0426" unicode="&#x426;" horiz-adv-x="531" 
d="M509 106v-239h-115v133h-343v656h116v-550h167v550h115v-550h60z" />
    <glyph glyph-name="uni0427" unicode="&#x427;" horiz-adv-x="490" 
d="M439 656v-656h-116v253q-44 -10 -91 -10q-93 0 -141 46t-48 135v232h116v-224q0 -42 22.5 -62t69.5 -20q26 0 72 7v299h116z" />
    <glyph glyph-name="uni0428" unicode="&#x428;" horiz-adv-x="772" 
d="M167 656v-549h161v549h116v-549h161v549h116v-656h-670v656h116z" />
    <glyph glyph-name="uni0429" unicode="&#x429;" horiz-adv-x="805" 
d="M783 106v-239h-115v133h-617v656h116v-549h162v549h116v-549h163v549h115v-550h60z" />
    <glyph glyph-name="uni042A" unicode="&#x42a;" horiz-adv-x="571" 
d="M495 359.5q50 -47.5 50 -139.5v-33q0 -92 -50 -139.5t-146 -47.5h-209v550h-130v106h246v-249h93q96 0 146 -47.5zM429 221q0 41 -22 61t-67 20h-84v-197h84q45 0 67 20.5t22 63.5v32z" />
    <glyph glyph-name="uni042B" unicode="&#x42b;" horiz-adv-x="670" 
d="M169 656v-249h89q96 0 146 -47.5t50 -139.5v-33q0 -92 -50 -139.5t-146 -47.5h-205v656h116zM617 656v-656h-116v656h116zM316.5 125.5q21.5 20.5 21.5 62.5v33q0 41 -22 61t-67 20h-80v-197h80q46 0 67.5 20.5z" />
    <glyph glyph-name="uni042C" unicode="&#x42c;" horiz-adv-x="482" 
d="M167 656v-249h93q96 0 146 -47.5t50 -139.5v-33q0 -92 -50 -139.5t-146 -47.5h-209v656h116zM318 125.5q22 20.5 22 63.5v32q0 41 -22 61t-67 20h-84v-197h84q45 0 67 20.5z" />
    <glyph glyph-name="uni042D" unicode="&#x42d;" horiz-adv-x="502" 
d="M397 616.5q56 -51.5 56 -140.5v-296q0 -89 -56 -140.5t-152 -51.5q-206 0 -206 208v30h114v-30q0 -49 24 -75.5t69 -26.5q44 0 68.5 24.5t24.5 69.5v88h-153v105h153v86q0 46 -24.5 70.5t-68.5 24.5q-45 0 -69 -26t-24 -75v-30h-114v30q0 100 53 153.5t153 53.5
q96 0 152 -51.5z" />
    <glyph glyph-name="uni042E" unicode="&#x42e;" horiz-adv-x="721" 
d="M615.5 617.5q56.5 -51.5 56.5 -137.5v-305q0 -86 -56 -136.5t-152 -50.5q-93 0 -147 50t-54 137v100h-96v-275h-116v656h116v-275h96v99q0 87 53.5 137t147.5 51q95 1 151.5 -50.5zM556 472q0 42 -23.5 66t-65.5 24q-41 0 -64.5 -23.5t-23.5 -66.5v-290q0 -42 23 -65
t65 -23t65.5 23t23.5 65v290z" />
    <glyph glyph-name="uni042F" unicode="&#x42f;" horiz-adv-x="486" 
d="M435 656v-656h-116v251h-39l-137 -251h-115v17l128 242q-126 32 -126 184v20q0 95 50 144t147 49h208zM319 550h-83q-46 0 -68.5 -21.5t-22.5 -65.5v-20q0 -45 22 -66.5t69 -21.5h83v195z" />
    <glyph glyph-name="uni0430" unicode="&#x430;" horiz-adv-x="462" 
d="M457 102v-102h-50q-64 0 -96 34q-42 -46 -122 -46q-74 0 -116 38.5t-42 106.5q0 62 38.5 99t117.5 51l94 16v42q0 32 -17 49t-49 17q-34 0 -51.5 -18.5t-17.5 -54.5v-10h-111v10q0 87 45.5 132t131.5 45q88 0 134 -45t46 -131v-193q0 -40 36 -40h29zM247 96.5
q22 12.5 34 33.5v77l-68 -11q-34 -5 -53 -21.5t-19 -39.5q0 -24 15.5 -37.5t43.5 -13.5q25 0 47 12.5z" />
    <glyph glyph-name="uni0431" unicode="&#x431;" horiz-adv-x="451" 
d="M367 429.5q45 -45.5 45 -120.5v-151q0 -80 -48.5 -125t-134.5 -45q-89 0 -136.5 49t-47.5 141v221q0 85 17 136.5t56 79t107 38.5l41 7q15 2 20.5 6.5t5.5 14.5v15h102v-24q0 -48 -24 -73t-78 -34l-36 -6q-60 -9 -87 -32t-27 -66v-25q42 39 106 39q74 0 119 -45.5z
M301 295q0 35 -20 55t-55 20q-45 0 -69 -32v-158q0 -41 18.5 -64t52.5 -23q33 0 53 19.5t20 51.5v131z" />
    <glyph glyph-name="uni0432" unicode="&#x432;" horiz-adv-x="455" 
d="M425 152v-20q0 -132 -159 -132h-218v499h206q160 0 160 -129v-20q0 -68 -62 -97q73 -27 73 -101zM160 405v-106h74q32 0 49 12t17 34v13q0 23 -17 35t-49 12h-74zM311 158q0 22 -17.5 35t-48.5 13h-85v-111h85q32 0 49 13t17 37v13z" />
    <glyph glyph-name="uni0433" unicode="&#x433;" horiz-adv-x="330" 
d="M320 499v-102h-160v-397h-112v499h272z" />
    <glyph glyph-name="uni0434" unicode="&#x434;" horiz-adv-x="516" 
d="M500 102v-230h-113v128h-261v-128h-111v230h49q40 66 41 167l2 230h333v-397h60zM327 102v295h-116l-2 -136q-1 -96 -33 -159h151z" />
    <glyph glyph-name="uni0435" unicode="&#x435;" 
d="M151 213v-56q0 -29 19.5 -47t52.5 -18q34 0 53 19t19 51h111q-2 -84 -49.5 -129t-133.5 -45q-87 0 -135 45t-48 126v180q0 82 48 127t135 45t135 -45t48 -127v-126h-255zM171 389q-20 -18 -20 -48v-36h144v36q0 30 -19.5 48t-52.5 18q-32 0 -52 -18z" />
    <glyph glyph-name="uni0436" unicode="&#x436;" horiz-adv-x="684" 
d="M666 16v-16h-121l-104 199h-43v-199h-112v199h-43l-105 -199h-120v16l126 235l-120 232v16h118l101 -199h43v199h112v-199h43l101 199h117v-16l-119 -232z" />
    <glyph glyph-name="uni0437" unicode="&#x437;" horiz-adv-x="422" 
d="M392 150v-20q0 -67 -48.5 -104.5t-134.5 -37.5q-90 0 -138 41.5t-48 118.5v18h110v-18q0 -58 74 -58q36 0 55 13.5t19 38.5v14q0 48 -63 48h-74v97h71q32 0 48.5 11t16.5 33v14q0 25 -18 38t-52 13q-36 0 -56 -15t-20 -43v-18h-111v18q0 74 48.5 116t135.5 42
q85 0 134.5 -37t49.5 -102v-20q0 -68 -63 -99q64 -30 64 -102z" />
    <glyph glyph-name="uni0438" unicode="&#x438;" horiz-adv-x="461" 
d="M155 499v-297l153 297h105v-499h-107v297l-154 -297h-104v499h107z" />
    <glyph glyph-name="uni0439" unicode="&#x439;" horiz-adv-x="461" 
d="M155 499v-297l153 297h105v-499h-107v297l-154 -297h-104v499h107zM128 594q-37 33 -37 91v16h98v-16q0 -14 11 -22.5t30 -8.5t30 8.5t11 22.5v16h98v-16q0 -58 -37 -91t-102 -33t-102 33z" />
    <glyph glyph-name="uni043A" unicode="&#x43a;" horiz-adv-x="453" 
d="M435 16v-16h-120l-111 199h-44v-199h-112v499h112v-199h43l108 199h118v-16l-126 -232z" />
    <glyph glyph-name="uni043B" unicode="&#x43b;" horiz-adv-x="464" 
d="M416 0h-113v397h-114l-4 -237q-1 -85 -35 -122.5t-109 -37.5h-32v102h18q26 0 38 16.5t13 50.5l5 330h333v-499z" />
    <glyph glyph-name="uni043C" unicode="&#x43c;" horiz-adv-x="588" 
d="M540 499v-499h-105v346l-8 -35l-82 -311h-102l-83 311l-8 35v-346h-104v499h153l93 -355l93 355h153z" />
    <glyph glyph-name="uni043D" unicode="&#x43d;" horiz-adv-x="467" 
d="M160 499v-197h147v197h112v-499h-112v198h-147v-198h-112v499h112z" />
    <glyph glyph-name="uni043E" unicode="&#x43e;" 
d="M89.5 31.5q-49.5 43.5 -49.5 127.5v180q0 84 49.5 128t133.5 44t133.5 -43.5t49.5 -128.5v-180q0 -84 -49.5 -127.5t-133.5 -43.5t-133.5 43.5zM274.5 112q19.5 18 19.5 52v171q0 34 -20 52.5t-51 18.5t-51 -18.5t-20 -52.5v-171q0 -33 20 -51.5t51 -18.5q32 0 51.5 18z
" />
    <glyph glyph-name="uni043F" unicode="&#x43f;" horiz-adv-x="467" 
d="M419 499v-499h-113v398h-146v-398h-112v499h371z" />
    <glyph glyph-name="uni0440" unicode="&#x440;" horiz-adv-x="454" 
d="M371.5 470q43.5 -41 43.5 -113v-215q0 -73 -44 -113.5t-115 -40.5q-56 0 -96 26v-184h-112v669h97l4 -27q42 39 109 39q70 0 113.5 -41zM303 331q0 36 -19 55.5t-52 19.5q-21 0 -40 -10.5t-32 -28.5v-235q13 -18 32 -28t40 -10q33 0 52 20t19 56v161z" />
    <glyph glyph-name="uni0441" unicode="&#x441;" horiz-adv-x="442" 
d="M88.5 33q-48.5 45 -48.5 126v180q0 82 48 127t135 45q86 0 134 -45t48 -127v-46h-112v42q0 32 -19 51.5t-51 19.5t-51.5 -19.5t-19.5 -51.5v-171q0 -32 19.5 -51t51.5 -19t51 19t19 51v38h112v-43q0 -81 -48 -126t-134 -45t-134.5 45z" />
    <glyph glyph-name="uni0442" unicode="&#x442;" horiz-adv-x="387" 
d="M10 398v101h367v-101h-127v-398h-112v398h-128z" />
    <glyph glyph-name="uni0443" unicode="&#x443;" horiz-adv-x="464" 
d="M448 499v-16l-171 -542q-19 -60 -54.5 -85.5t-98.5 -25.5h-62v103h51q25 0 37.5 9.5t19.5 34.5l8 28l-162 478v16h118l101 -333l95 333h118z" />
    <glyph glyph-name="uni0444" unicode="&#x444;" horiz-adv-x="614" 
d="M520 448q53 -51 53 -139v-119q0 -88 -53 -139t-144 -51h-12v-170h-111v170h-16q-90 0 -143 51t-53 139v119q0 88 53 139t144 51h15v184h111v-184h12q91 0 144 -51zM253 102v295h-17q-40 0 -62.5 -24.5t-22.5 -68.5v-109q0 -43 22.5 -68t62.5 -25h17zM464 304
q0 44 -22.5 68.5t-63.5 24.5h-15v-295h15q41 0 63.5 24.5t22.5 68.5v109z" />
    <glyph glyph-name="uni0445" unicode="&#x445;" horiz-adv-x="436" 
d="M418 16v-16h-116l-83 152l-84 -152h-116v16l130 235l-127 232v16h116l81 -148l80 148h116v-16l-127 -232z" />
    <glyph glyph-name="uni0446" unicode="&#x446;" horiz-adv-x="494" 
d="M478 101v-229h-112v128h-318v499h112v-398h146v398h112v-398h60z" />
    <glyph glyph-name="uni0447" unicode="&#x447;" horiz-adv-x="450" 
d="M402 499v-499h-112v165q-43 -8 -80 -8q-82 0 -128 37.5t-46 104.5v200h111v-175q0 -32 20.5 -49.5t57.5 -17.5q22 0 65 8v234h112z" />
    <glyph glyph-name="uni0448" unicode="&#x448;" horiz-adv-x="704" 
d="M160 499v-398h136v398h112v-398h135v398h113v-499h-608v499h112z" />
    <glyph glyph-name="uni0449" unicode="&#x449;" horiz-adv-x="735" 
d="M716 101v-229h-112v128h-556v499h112v-398h136v398h112v-398h135v398h113v-398h60z" />
    <glyph glyph-name="uni044A" unicode="&#x44a;" horiz-adv-x="526" 
d="M459 301.5q45 -42.5 45 -124.5v-10q0 -81 -45.5 -124t-131.5 -43h-193v398h-124v101h236v-155h81q87 0 132 -42.5zM393 177q0 67 -77 67h-70v-144h70q40 0 58.5 16t18.5 51v10z" />
    <glyph glyph-name="uni044B" unicode="&#x44b;" horiz-adv-x="611" 
d="M364.5 301.5q45.5 -42.5 45.5 -124.5v-10q0 -81 -45.5 -124t-131.5 -43h-184v499h112v-155h72q86 0 131.5 -42.5zM562 499v-499h-113v499h113zM299 177q0 67 -77 67h-61v-144h61q40 0 58.5 16t18.5 51v10z" />
    <glyph glyph-name="uni044C" unicode="&#x44c;" horiz-adv-x="440" 
d="M373 301.5q45 -42.5 45 -124.5v-10q0 -81 -45.5 -124t-131.5 -43h-193v499h112v-155h81q87 0 132 -42.5zM307 177q0 67 -77 67h-70v-144h70q40 0 58.5 16t18.5 51v10z" />
    <glyph glyph-name="uni044D" unicode="&#x44d;" 
d="M356 466q48 -45 48 -127v-180q0 -81 -48.5 -126t-135.5 -45q-86 0 -134.5 45t-48.5 125v11h107v-12q0 -33 21 -52t56 -19t55.5 19.5t20.5 51.5v45h-127v97h127v43q0 33 -20.5 52.5t-55.5 19.5t-56 -19.5t-21 -52.5v-13h-107v12q0 80 48.5 125t134.5 45q88 0 136 -45z" />
    <glyph glyph-name="uni044E" unicode="&#x44e;" horiz-adv-x="620" 
d="M532.5 466q47.5 -45 47.5 -127v-180q0 -81 -48 -126t-133 -45q-83 0 -129 45t-46 126v39h-64v-198h-112v499h112v-197h64v37q0 82 46 127t129 45q86 0 133.5 -45zM469 335q0 32 -18.5 51.5t-48.5 19.5t-48 -19.5t-18 -51.5v-171q0 -32 18 -51t48 -19t48.5 19t18.5 51v171
z" />
    <glyph glyph-name="uni044F" unicode="&#x44f;" horiz-adv-x="457" 
d="M409 0h-112v170h-40l-113 -170h-118v15l111 165q-50 16 -77 52.5t-27 90.5v20q0 73 47 114.5t130 41.5h199v-499zM297 265v135h-77q-34 0 -55 -15.5t-21 -41.5v-19q0 -26 21 -42.5t55 -16.5h77z" />
    <glyph glyph-name="uni0450" unicode="&#x450;" 
d="M151 213v-56q0 -29 19.5 -47t52.5 -18q34 0 53 19t19 51h111q-2 -84 -49.5 -129t-133.5 -45q-87 0 -135 45t-48 126v180q0 82 48 127t135 45t135 -45t48 -127v-126h-255zM171 389q-20 -18 -20 -48v-36h144v36q0 30 -19.5 48t-52.5 18q-32 0 -52 -18zM84 716l278 -62v-100
l-278 63v99z" />
    <glyph glyph-name="uni0451" unicode="&#x451;" 
d="M151 213v-56q0 -29 19.5 -47t52.5 -18q34 0 53 19t19 51h111q-2 -84 -49.5 -129t-133.5 -45q-87 0 -135 45t-48 126v180q0 82 48 127t135 45t135 -45t48 -127v-126h-255zM171 389q-20 -18 -20 -48v-36h144v36q0 30 -19.5 48t-52.5 18q-32 0 -52 -18zM84.5 588
q-18.5 18 -18.5 47t18 47t47 18t47 -17.5t18 -47.5t-18 -47.5t-47 -17.5q-28 0 -46.5 18zM267 587.5q-18 17.5 -18 47.5t18 47.5t47 17.5t47 -18t18 -47t-18 -47t-47 -18t-47 17.5z" />
    <glyph glyph-name="uni0452" unicode="&#x452;" horiz-adv-x="469" 
d="M382.5 455.5q40.5 -42.5 40.5 -118.5v-336q0 -83 -43 -127t-124 -44h-35v103h22q33 0 51 19t18 54v311q0 75 -70 75q-21 0 -40 -10.5t-32 -28.5v-353h-112v552h-58v96h58v48h112v-48h113v-96h-113v-87q41 33 99 33q73 0 113.5 -42.5z" />
    <glyph glyph-name="uni0453" unicode="&#x453;" horiz-adv-x="330" 
d="M320 499v-102h-160v-397h-112v499h272zM319 716v-99l-278 -63v100z" />
    <glyph glyph-name="uni0454" unicode="&#x454;" 
d="M300 329v13q0 33 -21 52.5t-56 19.5t-55.5 -19.5t-20.5 -52.5v-43h127v-97h-127v-45q0 -32 20.5 -51.5t55.5 -19.5t56 19t21 52v12h107v-12q0 -79 -48.5 -124t-134.5 -45q-87 0 -135.5 45t-48.5 126v180q0 82 48 127t136 45q86 0 134.5 -44.5t48.5 -124.5v-13h-107z" />
    <glyph glyph-name="uni0455" unicode="&#x455;" horiz-adv-x="427" 
d="M82 29.5q-46 41.5 -46 118.5v18h111v-18q0 -29 17.5 -44.5t48.5 -15.5q30 0 48.5 13t18.5 35v8q0 19 -15.5 32.5t-47.5 22.5l-51 14q-60 16 -92 52t-32 86v16q0 66 47.5 105t127.5 39q83 0 127.5 -40t44.5 -115v-18h-109v18q0 26 -18 41t-47 15t-45.5 -12t-16.5 -32v-8
q0 -35 51 -50l62 -17q65 -18 95.5 -51t30.5 -91v-16q0 -68 -47.5 -107.5t-130.5 -39.5q-86 0 -132 41.5z" />
    <glyph glyph-name="uni0456" unicode="&#x456;" horiz-adv-x="210" 
d="M160 499v-499h-111v499h111zM52 582q-21 21 -21 53q0 33 21 53.5t53 20.5q33 0 53.5 -20t20.5 -54q0 -32 -20.5 -53t-53.5 -21q-32 0 -53 21z" />
    <glyph glyph-name="uni0457" unicode="&#x457;" horiz-adv-x="234" 
d="M15.5 585.5q-14.5 17.5 -14.5 48.5t14.5 48.5t40.5 17.5t40.5 -17.5t14.5 -48.5t-14.5 -48.5t-40.5 -17.5t-40.5 17.5zM137.5 585.5q-14.5 17.5 -14.5 48.5t14.5 48.5t40.5 17.5t40.5 -17.5t14.5 -48.5t-14.5 -48.5t-40.5 -17.5t-40.5 17.5zM172 499v-499h-111v499h111z
" />
    <glyph glyph-name="uni0458" unicode="&#x458;" horiz-adv-x="210" 
d="M-6 -67q26 0 40.5 15.5t14.5 42.5v508h111v-516q0 -70 -41 -111.5t-110 -41.5h-56v103h41zM52 582q-21 21 -21 53q0 33 21 53.5t53 20.5q33 0 53.5 -20t20.5 -54q0 -32 -20.5 -53t-53.5 -21q-32 0 -53 21z" />
    <glyph glyph-name="uni0459" unicode="&#x459;" horiz-adv-x="686" 
d="M619 301.5q45 -42.5 45 -124.5v-10q0 -81 -45.5 -124t-131.5 -43h-189v396h-109l-4 -236q-1 -85 -35 -122.5t-109 -37.5h-32v102h18q26 0 38 16.5t13 50.5l5 330h327v-155h77q87 0 132 -42.5zM553 177q0 67 -77 67h-66v-144h66q40 0 58.5 16t18.5 51v10z" />
    <glyph glyph-name="uni045A" unicode="&#x45a;" horiz-adv-x="689" 
d="M160 499v-188h146v188h112v-180h72q88 0 132.5 -39t44.5 -115v-10q0 -76 -45 -115.5t-132 -39.5h-184v207h-146v-207h-112v499h112zM538.5 110q17.5 13 17.5 45v10q0 30 -18 43.5t-59 13.5h-61v-125h61q42 0 59.5 13z" />
    <glyph glyph-name="uni045B" unicode="&#x45b;" horiz-adv-x="469" 
d="M382 456q41 -42 41 -119v-337h-111v317q0 37 -16.5 56t-53.5 19q-21 0 -40 -10.5t-32 -28.5v-353h-112v552h-58v96h58v48h112v-48h113v-96h-113v-87q42 33 99 33q72 0 113 -42z" />
    <glyph glyph-name="uni045C" unicode="&#x45c;" horiz-adv-x="453" 
d="M435 16v-16h-120l-111 199h-44v-199h-112v499h112v-199h43l108 199h118v-16l-126 -232zM369 716v-99l-278 -63v100z" />
    <glyph glyph-name="uni045D" unicode="&#x45d;" horiz-adv-x="461" 
d="M155 499v-297l153 297h105v-499h-107v297l-154 -297h-104v499h107zM91 716l278 -62v-100l-278 63v99z" />
    <glyph glyph-name="uni045E" unicode="&#x45e;" horiz-adv-x="464" 
d="M448 499v-16l-171 -542q-19 -60 -54.5 -85.5t-98.5 -25.5h-62v103h51q25 0 37.5 9.5t19.5 34.5l8 28l-162 478v16h118l101 -333l95 333h118zM130 594q-37 33 -37 91v16h98v-16q0 -14 11 -22.5t30 -8.5t30 8.5t11 22.5v16h98v-16q0 -58 -37 -91t-102 -33t-102 33z" />
    <glyph glyph-name="uni045F" unicode="&#x45f;" horiz-adv-x="469" 
d="M421 0h-136v-128h-100v128h-137v499h112v-397h148v397h113v-499z" />
    <glyph glyph-name="uni0462" unicode="&#x462;" horiz-adv-x="535" 
d="M463 326.5q49 -43.5 49 -131.5v-20q0 -88 -49 -131.5t-148 -43.5h-208v479h-104v102h104v84h116v-84h175v-102h-175v-109h92q99 0 148 -43.5zM396 195q0 38 -21.5 55t-67.5 17h-84v-164h84q46 0 67.5 17t21.5 55v20z" />
    <glyph glyph-name="uni0463" unicode="&#x463;" horiz-adv-x="526" 
d="M448 278q46 -40 46 -114v-10q0 -76 -45 -115t-132 -39h-193v399h-114v100h114v197h112v-197h154v-100h-154v-81h81q85 0 131 -40zM387 164q0 29 -19.5 44.5t-57.5 15.5h-74v-130h74q40 0 58.5 14.5t18.5 45.5v10z" />
    <glyph glyph-name="uni0472" unicode="&#x472;" horiz-adv-x="512" 
d="M407 616q56 -52 56 -140v-296q0 -88 -56 -140t-151 -52t-151 51.5t-56 140.5v296q0 89 56 140.5t151 51.5t151 -52zM186 537.5q-25 -25.5 -25 -70.5v-86q27 5 48 5q22 0 47 -5q5 -1 20.5 -3t31.5 -2q24 0 44 4v87q0 45 -25 70.5t-71 25.5q-45 0 -70 -25.5zM327 118.5
q25 25.5 25 70.5v88q-25 -6 -51 -6q-17 0 -32.5 2t-20.5 3q-25 5 -47 5q-12 0 -40 -4v-88q0 -45 25 -70.5t70 -25.5q46 0 71 25.5z" />
    <glyph glyph-name="uni0473" unicode="&#x473;" 
d="M358.5 466q47.5 -45 47.5 -127v-180q0 -81 -48 -126t-135 -45t-135 45t-48 126v180q0 82 48 127t135 45q88 0 135.5 -45zM167 390.5q-21 -20.5 -21 -55.5v-38q24 4 37 4q21 0 44 -5q26 -4 41 -4q17 0 32 3v40q0 35 -20 55.5t-56 20.5t-57 -20.5zM279.5 108.5
q20.5 20.5 20.5 54.5v39q-19 -4 -38 -4q-17 0 -43 4t-42 4q-14 0 -31 -3v-40q0 -34 21 -54.5t57 -20.5q35 0 55.5 20.5z" />
    <glyph glyph-name="uni0474" unicode="&#x474;" horiz-adv-x="513" 
d="M503 656v-105h-28q-16 0 -24.5 -9t-13.5 -29l-122 -513h-135l-161 639v17h123l105 -464l74 348q13 63 40.5 89.5t86.5 26.5h55z" />
    <glyph glyph-name="uni0475" unicode="&#x475;" horiz-adv-x="458" 
d="M448 499v-101h-24q-12 0 -18.5 -6t-10.5 -22l-107 -370h-133l-139 483v16h115l92 -347l69 262q13 47 36.5 66t76.5 19h43z" />
    <glyph glyph-name="uni0490" unicode="&#x490;" horiz-adv-x="386" 
d="M250 656v133h116v-239h-199v-550h-116v656h199z" />
    <glyph glyph-name="uni0491" unicode="&#x491;" horiz-adv-x="330" 
d="M191 499v127h112v-229h-143v-397h-112v499h143z" />
    <glyph glyph-name="uni0492" unicode="&#x492;" horiz-adv-x="419" 
d="M180 550v-195h139v-103h-139v-252h-116v252h-59v103h59v301h345v-106h-229z" />
    <glyph glyph-name="uni0493" unicode="&#x493;" horiz-adv-x="370" 
d="M175 397v-144h104v-96h-104v-157h-111v157h-59v96h59v246h287v-102h-176z" />
    <glyph glyph-name="uni0494" unicode="&#x494;" horiz-adv-x="475" 
d="M395.5 349q47.5 -46 47.5 -135v-206q0 -83 -49 -130.5t-135 -47.5h-35l1 106h23q38 0 58.5 21t20.5 60v189q0 82 -90 82q-31 0 -70 -7v-281h-116v656h352v-106h-236v-164q45 9 87 9q94 0 141.5 -46z" />
    <glyph glyph-name="uni0495" unicode="&#x495;" horiz-adv-x="456" 
d="M367 247q47 -34 47 -108v-146q0 -75 -43.5 -119t-117.5 -44h-46v103h31q31 0 48 18t17 50v113q0 67 -75 67q-31 0 -68 -6v-176h-112v499h336v-102h-224v-123q45 8 87 8q73 0 120 -34z" />
    <glyph glyph-name="uni0496" unicode="&#x496;" horiz-adv-x="753" 
d="M731 106v-239h-116v133h-32l-99 275h-54v-275h-116v275h-56l-110 -275h-120v17l126 312l-121 310v17h119l107 -276h55v276h116v-276h56l107 276h118v-17l-120 -310l80 -223h60z" />
    <glyph glyph-name="uni0497" unicode="&#x497;" horiz-adv-x="694" 
d="M678 101v-229h-112v128h-30l-102 199h-43v-199h-112v199h-43l-105 -199h-120v16l126 235l-120 232v16h118l101 -199h43v199h112v-199h43l101 199h117v-16l-119 -232l79 -150h66z" />
    <glyph glyph-name="uni0498" unicode="&#x498;" horiz-adv-x="487" 
d="M432 278q20 -33 20 -77v-35q0 -52 -26 -92.5t-72.5 -63t-106.5 -22.5q-103 0 -156 52t-53 153v32h116v-32q0 -53 22 -76t73 -23q39 0 63 23.5t24 61.5v20q0 37 -22 57t-63 20h-59v105h63q33 0 52.5 20.5t19.5 55.5v20q0 39 -22 62t-60 23q-87 0 -87 -102v-30h-116v30
q0 101 52 154.5t150 53.5q58 0 103 -22.5t70.5 -63.5t25.5 -93v-35q0 -40 -18 -71.5t-50 -51.5q37 -20 57 -53zM307 12v-145h-114v145h114z" />
    <glyph glyph-name="uni0499" unicode="&#x499;" horiz-adv-x="422" 
d="M392 150v-20q0 -67 -48.5 -104.5t-134.5 -37.5q-90 0 -138 41.5t-48 118.5v18h110v-18q0 -58 74 -58q36 0 55 13.5t19 38.5v14q0 48 -63 48h-74v97h71q32 0 48.5 11t16.5 33v14q0 25 -18 38t-52 13q-36 0 -56 -15t-20 -43v-18h-111v18q0 74 48.5 116t135.5 42
q85 0 134.5 -37t49.5 -102v-20q0 -68 -63 -99q64 -30 64 -102zM275 12v-145h-111v145h111z" />
    <glyph glyph-name="uni049A" unicode="&#x49a;" horiz-adv-x="505" 
d="M483 106v-239h-116v133h-32l-114 275h-54v-275h-116v656h116v-276h56l117 276h118v-17l-132 -310l93 -223h64z" />
    <glyph glyph-name="uni049B" unicode="&#x49b;" horiz-adv-x="465" 
d="M449 101v-229h-112v128h-30l-105 199h-42v-199h-112v499h112v-199h43l108 199h118v-16l-127 -233l79 -149h68z" />
    <glyph glyph-name="uni049C" unicode="&#x49c;" horiz-adv-x="536" 
d="M508 17v-17h-120l-108 275h-4v-139h-84v139h-25v-275h-116v656h116v-276h25v139h84v-139h3l106 276h118v-17l-118 -310z" />
    <glyph glyph-name="uni049D" unicode="&#x49d;" horiz-adv-x="488" 
d="M470 16v-16h-121l-83 199h-3v-128h-79v128h-24v-199h-112v499h112v-199h24v114h79v-114h2l81 199h117v-16l-98 -232z" />
    <glyph glyph-name="uni04A0" unicode="&#x4a0;" horiz-adv-x="598" 
d="M570 17v-17h-121l-120 275h-56v-275h-116v550h-147v106h263v-276h55l118 276h118v-17l-132 -310z" />
    <glyph glyph-name="uni04A1" unicode="&#x4a1;" horiz-adv-x="551" 
d="M540 16v-16h-120l-111 199h-44v-199h-112v398h-143v101h255v-199h43l108 199h118v-16l-126 -232z" />
    <glyph glyph-name="uni04A2" unicode="&#x4a2;" horiz-adv-x="537" 
d="M515 106v-239h-115v133h-60v275h-173v-275h-116v656h116v-276h173v276h115v-550h60z" />
    <glyph glyph-name="uni04A3" unicode="&#x4a3;" horiz-adv-x="498" 
d="M482 102v-230h-112v128h-60v198h-150v-198h-112v499h112v-197h150v197h112v-397h60z" />
    <glyph glyph-name="uni04A4" unicode="&#x4a4;" horiz-adv-x="618" 
d="M167 656v-276h157v276h284v-106h-168v-550h-116v275h-157v-275h-116v656h116z" />
    <glyph glyph-name="uni04A5" unicode="&#x4a5;" horiz-adv-x="580" 
d="M160 499v-197h137v197h273v-101h-160v-398h-113v198h-137v-198h-112v499h112z" />
    <glyph glyph-name="uni04AA" unicode="&#x4aa;" horiz-adv-x="502" 
d="M105 39.5q-56 51.5 -56 140.5v296q0 89 56 140.5t152 51.5q206 0 206 -216v-61h-116v61q0 56 -22 83t-69 27q-44 0 -67.5 -24.5t-23.5 -70.5v-279q0 -46 23.5 -70t67.5 -24q91 0 91 105v61h116v-61q0 -105 -52 -158t-154 -53q-96 0 -152 51.5zM315 12v-145h-114v145h114z
" />
    <glyph glyph-name="uni04AB" unicode="&#x4ab;" horiz-adv-x="442" 
d="M88.5 33q-48.5 45 -48.5 126v180q0 82 48 127t135 45q86 0 134 -45t48 -127v-46h-112v42q0 32 -19 51.5t-51 19.5t-51.5 -19.5t-19.5 -51.5v-171q0 -32 19.5 -51t51.5 -19t51 19t19 51v38h112v-43q0 -81 -48 -126t-134 -45t-134.5 45zM274 12v-145h-111v145h111z" />
    <glyph glyph-name="uni04AE" unicode="&#x4ae;" horiz-adv-x="454" 
d="M443 639l-158 -380v-259h-116v257l-158 382v17h113l103 -255l102 255h114v-17z" />
    <glyph glyph-name="uni04AF" unicode="&#x4af;" 
d="M430 483l-152 -506v-147h-111v151l-151 502v16h110l97 -345l96 345h111v-16z" />
    <glyph glyph-name="uni04B0" unicode="&#x4b0;" horiz-adv-x="454" 
d="M443 639l-133 -320h84v-106h-109v-213h-116v213h-109v106h83l-132 320v17h113l103 -255l102 255h114v-17z" />
    <glyph glyph-name="uni04B1" unicode="&#x4b1;" 
d="M430 483l-116 -384h77v-99h-113v-170h-111v170h-112v99h77l-116 384v16h110l97 -345l96 345h111v-16z" />
    <glyph glyph-name="uni04B2" unicode="&#x4b2;" horiz-adv-x="508" 
d="M486 106v-239h-116v133h-32l-93 220l-100 -220h-117v17l142 306l-139 316v17h117l98 -229l100 229h118v-17l-142 -316l95 -217h69z" />
    <glyph glyph-name="uni04B3" unicode="&#x4b3;" horiz-adv-x="451" 
d="M435 101v-229h-112v128h-30l-76 149l-82 -149h-116v16l130 235l-127 232v16h116l81 -148l80 148h116v-16l-127 -232l77 -150h70z" />
    <glyph glyph-name="uni04B6" unicode="&#x4b6;" horiz-adv-x="523" 
d="M499 106v-239h-115v133h-61v253q-44 -10 -91 -10q-93 0 -141 46t-48 135v232h116v-224q0 -42 22.5 -62t69.5 -20q26 0 72 7v299h116v-550h60z" />
    <glyph glyph-name="uni04B7" unicode="&#x4b7;" horiz-adv-x="487" 
d="M462 101v-229h-112v128h-60v165q-43 -8 -80 -8q-82 0 -128 37.5t-46 104.5v200h111v-175q0 -32 20.5 -49.5t57.5 -17.5q22 0 65 8v234h112v-398h60z" />
    <glyph glyph-name="uni04B8" unicode="&#x4b8;" horiz-adv-x="481" 
d="M430 656v-656h-116v250q-25 -4 -35 -5v-129h-84v130q-74 10 -113 55.5t-39 122.5v232h116v-224q0 -54 36 -72v159h84v-166q6 1 35 5v298h116z" />
    <glyph glyph-name="uni04B9" unicode="&#x4b9;" horiz-adv-x="453" 
d="M405 499v-499h-112v163q-12 -2 -32 -4v-98h-79v99q-69 9 -107.5 45.5t-38.5 93.5v200h111v-185q0 -22 8 -34t27 -18v152h79v-156q20 2 32 4v237h112z" />
    <glyph glyph-name="uni04BA" unicode="&#x4ba;" horiz-adv-x="490" 
d="M399 367q48 -46 48 -135v-232h-116v224q0 42 -22.5 62t-69.5 20q-27 0 -72 -7v-299h-116v656h116v-253q44 10 91 10q93 0 141 -46z" />
    <glyph glyph-name="uni04BB" unicode="&#x4bb;" horiz-adv-x="459" 
d="M372 469q41 -42 41 -119v-350h-111v331q0 75 -70 75q-21 0 -40 -10.5t-32 -28.5v-367h-112v696h112v-218q42 33 99 33q72 0 113 -42z" />
    <glyph glyph-name="uni04C0" unicode="&#x4c0;" horiz-adv-x="220" 
d="M168 656v-656h-116v656h116z" />
    <glyph glyph-name="uni04C1" unicode="&#x4c1;" horiz-adv-x="744" 
d="M716 17v-17h-120l-111 275h-55v-275h-116v275h-56l-110 -275h-120v17l126 313l-121 309v17h119l107 -276h55v276h116v-276h56l107 276h118v-17l-120 -310zM270 751q-37 33 -37 91v16h98v-16q0 -14 11 -22.5t30 -8.5t30 8.5t11 22.5v16h98v-16q0 -58 -37 -91t-102 -33
t-102 33z" />
    <glyph glyph-name="uni04C2" unicode="&#x4c2;" horiz-adv-x="684" 
d="M666 16v-16h-121l-104 199h-43v-199h-112v199h-43l-105 -199h-120v16l126 235l-120 232v16h118l101 -199h43v199h112v-199h43l101 199h117v-16l-119 -232zM241 594q-37 33 -37 91v16h98v-16q0 -14 11 -22.5t30 -8.5t30 8.5t11 22.5v16h98v-16q0 -58 -37 -91t-102 -33
t-102 33z" />
    <glyph glyph-name="uni04CF" unicode="&#x4cf;" horiz-adv-x="210" 
d="M160 696v-696h-111v696h111z" />
    <glyph glyph-name="uni04D0" unicode="&#x4d0;" horiz-adv-x="499" 
d="M481 17v-17h-118l-29 127h-167l-30 -127h-118v17l163 639h137zM310 231l-60 257l-59 -257h119zM148 751q-37 33 -37 91v16h98v-16q0 -14 11 -22.5t30 -8.5t30 8.5t11 22.5v16h98v-16q0 -58 -37 -91t-102 -33t-102 33z" />
    <glyph glyph-name="uni04D1" unicode="&#x4d1;" horiz-adv-x="462" 
d="M457 102v-102h-50q-64 0 -96 34q-42 -46 -122 -46q-74 0 -116 38.5t-42 106.5q0 62 38.5 99t117.5 51l94 16v42q0 32 -17 49t-49 17q-34 0 -51.5 -18.5t-17.5 -54.5v-10h-111v10q0 87 45.5 132t131.5 45q88 0 134 -45t46 -131v-193q0 -40 36 -40h29zM247 96.5
q22 12.5 34 33.5v77l-68 -11q-34 -5 -53 -21.5t-19 -39.5q0 -24 15.5 -37.5t43.5 -13.5q25 0 47 12.5zM120 594q-37 33 -37 91v16h98v-16q0 -14 11 -22.5t30 -8.5t30 8.5t11 22.5v16h98v-16q0 -58 -37 -91t-102 -33t-102 33z" />
    <glyph glyph-name="uni04D2" unicode="&#x4d2;" horiz-adv-x="499" 
d="M481 17v-17h-118l-29 127h-167l-30 -127h-118v17l163 639h137zM310 231l-60 257l-59 -257h119zM111.5 745q-18.5 18 -18.5 47t18 47t47 18t47 -17.5t18 -47.5t-18 -47.5t-47 -17.5q-28 0 -46.5 18zM294 744.5q-18 17.5 -18 47.5t18 47.5t47 17.5t47 -18t18 -47t-18 -47
t-47 -18t-47 17.5z" />
    <glyph glyph-name="uni04D3" unicode="&#x4d3;" horiz-adv-x="462" 
d="M457 102v-102h-50q-64 0 -96 34q-42 -46 -122 -46q-74 0 -116 38.5t-42 106.5q0 62 38.5 99t117.5 51l94 16v42q0 32 -17 49t-49 17q-34 0 -51.5 -18.5t-17.5 -54.5v-10h-111v10q0 87 45.5 132t131.5 45q88 0 134 -45t46 -131v-193q0 -40 36 -40h29zM247 96.5
q22 12.5 34 33.5v77l-68 -11q-34 -5 -53 -21.5t-19 -39.5q0 -24 15.5 -37.5t43.5 -13.5q25 0 47 12.5zM83.5 588q-18.5 18 -18.5 47t18 47t47 18t47 -17.5t18 -47.5t-18 -47.5t-47 -17.5q-28 0 -46.5 18zM266 587.5q-18 17.5 -18 47.5t18 47.5t47 17.5t47 -18t18 -47
t-18 -47t-47 -18t-47 17.5z" />
    <glyph glyph-name="uni04D4" unicode="&#x4d4;" horiz-adv-x="657" 
d="M388 549l20 -168h202v-106h-189l20 -169h189v-106h-291l-15 127h-163l-31 -127h-111v17l161 639h450v-107h-242zM274 549h-11l-77 -318h126z" />
    <glyph glyph-name="uni04D5" unicode="&#x4d5;" horiz-adv-x="695" 
d="M402 213v-52q0 -31 20 -49.5t53 -18.5q32 0 50.5 18.5t18.5 50.5h111q-2 -84 -49 -129t-131 -45q-97 0 -147 52q-24 -25 -58.5 -38.5t-76.5 -13.5q-75 0 -118.5 38.5t-43.5 105.5q0 126 156 151l93 15v44q0 31 -17.5 48t-48.5 17q-69 0 -69 -73v-10h-110v10
q0 87 43.5 132t128.5 45q94 0 139 -57q24 27 59 42t77 15q77 0 125 -47.5t48 -124.5v-126h-253zM421.5 387.5q-19.5 -19.5 -19.5 -51.5v-32h142v32q0 32 -19.5 51.5t-52.5 19.5q-31 0 -50.5 -19.5zM249 97q22 13 33 36q-2 22 -2 34v40l-70 -11q-34 -5 -51.5 -20.5
t-17.5 -39.5q0 -25 15.5 -38.5t43.5 -13.5q27 0 49 13z" />
    <glyph glyph-name="uni04D6" unicode="&#x4d6;" horiz-adv-x="429" 
d="M402 656v-106h-235v-170h218v-105h-218v-169h235v-106h-351v656h351zM124 751q-37 33 -37 91v16h98v-16q0 -14 11 -22.5t30 -8.5t30 8.5t11 22.5v16h98v-16q0 -58 -37 -91t-102 -33t-102 33z" />
    <glyph glyph-name="uni04D7" unicode="&#x4d7;" 
d="M151 213v-56q0 -29 19.5 -47t52.5 -18q34 0 53 19t19 51h111q-2 -84 -49.5 -129t-133.5 -45q-87 0 -135 45t-48 126v180q0 82 48 127t135 45t135 -45t48 -127v-126h-255zM171 389q-20 -18 -20 -48v-36h144v36q0 30 -19.5 48t-52.5 18q-32 0 -52 -18zM121 594
q-37 33 -37 91v16h98v-16q0 -14 11 -22.5t30 -8.5t30 8.5t11 22.5v16h98v-16q0 -58 -37 -91t-102 -33t-102 33z" />
    <glyph glyph-name="uni04D8" unicode="&#x4d8;" horiz-adv-x="512" 
d="M407 615.5q56 -52.5 56 -139.5v-296q0 -88 -56 -140t-151 -52q-96 0 -151.5 53.5t-55.5 145.5v193h303v85q0 47 -25 72.5t-71 25.5q-48 0 -71.5 -26t-23.5 -79h-112q0 100 54 155t153 55q95 0 151 -52.5zM327.5 119q24.5 25 24.5 71v85h-191v-85q0 -46 24.5 -71t70.5 -25
q47 0 71.5 25z" />
    <glyph glyph-name="uni04D9" unicode="&#x4d9;" 
d="M358 466q48 -45 48 -126v-180q0 -82 -48 -127t-135 -45t-135 45t-48 127v126h255v56q0 29 -19.5 47t-52.5 18q-34 0 -53 -19t-19 -51h-111q2 84 49.5 129t133.5 45q87 0 135 -45zM275 110q20 18 20 48v36h-144v-36q0 -30 19.5 -48t52.5 -18q32 0 52 18z" />
    <glyph glyph-name="uni04DA" unicode="&#x4da;" horiz-adv-x="512" 
d="M407 615.5q56 -52.5 56 -139.5v-296q0 -88 -56 -140t-151 -52q-96 0 -151.5 53.5t-55.5 145.5v193h303v85q0 47 -25 72.5t-71 25.5q-48 0 -71.5 -26t-23.5 -79h-112q0 100 54 155t153 55q95 0 151 -52.5zM327.5 119q24.5 25 24.5 71v85h-191v-85q0 -46 24.5 -71t70.5 -25
q47 0 71.5 25zM117.5 745q-18.5 18 -18.5 47t18 47t47 18t47 -17.5t18 -47.5t-18 -47.5t-47 -17.5q-28 0 -46.5 18zM300 744.5q-18 17.5 -18 47.5t18 47.5t47 17.5t47 -18t18 -47t-18 -47t-47 -18t-47 17.5z" />
    <glyph glyph-name="uni04DB" unicode="&#x4db;" 
d="M358 466q48 -45 48 -126v-180q0 -82 -48 -127t-135 -45t-135 45t-48 127v126h255v56q0 29 -19.5 47t-52.5 18q-34 0 -53 -19t-19 -51h-111q2 84 49.5 129t133.5 45q87 0 135 -45zM275 110q20 18 20 48v36h-144v-36q0 -30 19.5 -48t52.5 -18q32 0 52 18zM84.5 588
q-18.5 18 -18.5 47t18 47t47 18t47 -17.5t18 -47.5t-18 -47.5t-47 -17.5q-28 0 -46.5 18zM267 587.5q-18 17.5 -18 47.5t18 47.5t47 17.5t47 -18t18 -47t-18 -47t-47 -18t-47 17.5z" />
    <glyph glyph-name="uni04DC" unicode="&#x4dc;" horiz-adv-x="744" 
d="M716 17v-17h-120l-111 275h-55v-275h-116v275h-56l-110 -275h-120v17l126 313l-121 309v17h119l107 -276h55v276h116v-276h56l107 276h118v-17l-120 -310zM233.5 745q-18.5 18 -18.5 47t18 47t47 18t47 -17.5t18 -47.5t-18 -47.5t-47 -17.5q-28 0 -46.5 18zM416 744.5
q-18 17.5 -18 47.5t18 47.5t47 17.5t47 -18t18 -47t-18 -47t-47 -18t-47 17.5z" />
    <glyph glyph-name="uni04DD" unicode="&#x4dd;" horiz-adv-x="684" 
d="M666 16v-16h-121l-104 199h-43v-199h-112v199h-43l-105 -199h-120v16l126 235l-120 232v16h118l101 -199h43v199h112v-199h43l101 199h117v-16l-119 -232zM204.5 588q-18.5 18 -18.5 47t18 47t47 18t47 -17.5t18 -47.5t-18 -47.5t-47 -17.5q-28 0 -46.5 18zM387 587.5
q-18 17.5 -18 47.5t18 47.5t47 17.5t47 -18t18 -47t-18 -47t-47 -18t-47 17.5z" />
    <glyph glyph-name="uni04DE" unicode="&#x4de;" horiz-adv-x="487" 
d="M432 278q20 -33 20 -77v-35q0 -52 -26 -92.5t-72.5 -63t-106.5 -22.5q-103 0 -156 52t-53 153v32h116v-32q0 -53 22 -76t73 -23q39 0 63 23.5t24 61.5v20q0 37 -22 57t-63 20h-59v105h63q33 0 52.5 20.5t19.5 55.5v20q0 39 -22 62t-60 23q-87 0 -87 -102v-30h-116v30
q0 101 52 154.5t150 53.5q58 0 103 -22.5t70.5 -63.5t25.5 -93v-35q0 -40 -18 -71.5t-50 -51.5q37 -20 57 -53zM111.5 745q-18.5 18 -18.5 47t18 47t47 18t47 -17.5t18 -47.5t-18 -47.5t-47 -17.5q-28 0 -46.5 18zM294 744.5q-18 17.5 -18 47.5t18 47.5t47 17.5t47 -18
t18 -47t-18 -47t-47 -18t-47 17.5z" />
    <glyph glyph-name="uni04DF" unicode="&#x4df;" horiz-adv-x="422" 
d="M392 150v-20q0 -67 -48.5 -104.5t-134.5 -37.5q-90 0 -138 41.5t-48 118.5v18h110v-18q0 -58 74 -58q36 0 55 13.5t19 38.5v14q0 48 -63 48h-74v97h71q32 0 48.5 11t16.5 33v14q0 25 -18 38t-52 13q-36 0 -56 -15t-20 -43v-18h-111v18q0 74 48.5 116t135.5 42
q85 0 134.5 -37t49.5 -102v-20q0 -68 -63 -99q64 -30 64 -102zM80.5 587q-18.5 18 -18.5 47t18 47t47 18t47 -17.5t18 -47.5t-18 -47.5t-47 -17.5q-28 0 -46.5 18zM263 586.5q-18 17.5 -18 47.5t18 47.5t47 17.5t47 -18t18 -47t-18 -47t-47 -18t-47 17.5z" />
    <glyph glyph-name="uni04E2" unicode="&#x4e2;" horiz-adv-x="504" 
d="M165 656v-413l170 413h118v-656h-114v414l-168 -414h-120v656h114zM393 841v-98h-278v98h278z" />
    <glyph glyph-name="uni04E3" unicode="&#x4e3;" horiz-adv-x="461" 
d="M155 499v-297l153 297h105v-499h-107v297l-154 -297h-104v499h107zM369 684v-98h-278v98h278z" />
    <glyph glyph-name="uni04E4" unicode="&#x4e4;" horiz-adv-x="504" 
d="M165 656v-413l170 413h118v-656h-114v414l-168 -414h-120v656h114zM115.5 745q-18.5 18 -18.5 47t18 47t47 18t47 -17.5t18 -47.5t-18 -47.5t-47 -17.5q-28 0 -46.5 18zM298 744.5q-18 17.5 -18 47.5t18 47.5t47 17.5t47 -18t18 -47t-18 -47t-47 -18t-47 17.5z" />
    <glyph glyph-name="uni04E5" unicode="&#x4e5;" horiz-adv-x="461" 
d="M155 499v-297l153 297h105v-499h-107v297l-154 -297h-104v499h107zM91.5 588q-18.5 18 -18.5 47t18 47t47 18t47 -17.5t18 -47.5t-18 -47.5t-47 -17.5q-28 0 -46.5 18zM274 587.5q-18 17.5 -18 47.5t18 47.5t47 17.5t47 -18t18 -47t-18 -47t-47 -18t-47 17.5z" />
    <glyph glyph-name="uni04E6" unicode="&#x4e6;" horiz-adv-x="512" 
d="M104.5 39.5q-55.5 51.5 -55.5 140.5v296q0 88 56 140t151 52q96 0 151.5 -52t55.5 -140v-296q0 -89 -55.5 -140.5t-151.5 -51.5t-151.5 51.5zM324 118.5q24 24.5 24 69.5v279q0 46 -24 70.5t-68 24.5t-67.5 -24.5t-23.5 -70.5v-279q0 -45 23.5 -69.5t67.5 -24.5t68 24.5z
M117.5 745q-18.5 18 -18.5 47t18 47t47 18t47 -17.5t18 -47.5t-18 -47.5t-47 -17.5q-28 0 -46.5 18zM300 744.5q-18 17.5 -18 47.5t18 47.5t47 17.5t47 -18t18 -47t-18 -47t-47 -18t-47 17.5z" />
    <glyph glyph-name="uni04E7" unicode="&#x4e7;" 
d="M89.5 31.5q-49.5 43.5 -49.5 127.5v180q0 84 49.5 128t133.5 44t133.5 -43.5t49.5 -128.5v-180q0 -84 -49.5 -127.5t-133.5 -43.5t-133.5 43.5zM274.5 112q19.5 18 19.5 52v171q0 34 -20 52.5t-51 18.5t-51 -18.5t-20 -52.5v-171q0 -33 20 -51.5t51 -18.5q32 0 51.5 18z
M84.5 588q-18.5 18 -18.5 47t18 47t47 18t47 -17.5t18 -47.5t-18 -47.5t-47 -17.5q-28 0 -46.5 18zM267 587.5q-18 17.5 -18 47.5t18 47.5t47 17.5t47 -18t18 -47t-18 -47t-47 -18t-47 17.5z" />
    <glyph glyph-name="uni04E8" unicode="&#x4e8;" horiz-adv-x="512" 
d="M407 616q56 -52 56 -140v-296q0 -88 -56 -140t-151 -52t-151 51.5t-56 140.5v296q0 89 56 140.5t151 51.5t151 -52zM186 537.5q-25 -25.5 -25 -70.5v-86h191v86q0 45 -25 70.5t-71 25.5q-45 0 -70 -25.5zM327 118.5q25 25.5 25 70.5v87h-191v-87q0 -45 25 -70.5t70 -25.5
q46 0 71 25.5z" />
    <glyph glyph-name="uni04E9" unicode="&#x4e9;" 
d="M358.5 466q47.5 -45 47.5 -127v-180q0 -81 -48 -126t-135 -45t-135 45t-48 126v180q0 82 48 127t135 45q88 0 135.5 -45zM167 390.5q-21 -20.5 -21 -55.5v-37h154v37q0 35 -20 55.5t-56 20.5t-57 -20.5zM279.5 108.5q20.5 20.5 20.5 54.5v40h-154v-40q0 -34 21 -54.5
t57 -20.5q35 0 55.5 20.5z" />
    <glyph glyph-name="uni04EE" unicode="&#x4ee;" horiz-adv-x="459" 
d="M461 656v-17l-168 -528q-19 -58 -54.5 -84.5t-95.5 -26.5h-78v106h71q18 0 29.5 7.5t18.5 26.5l-169 499v17h115l113 -361l106 361h112zM374 841v-98h-278v98h278z" />
    <glyph glyph-name="uni04EF" unicode="&#x4ef;" horiz-adv-x="464" 
d="M448 499v-16l-171 -542q-19 -60 -54.5 -85.5t-98.5 -25.5h-62v103h51q25 0 37.5 9.5t19.5 34.5l8 28l-162 478v16h118l101 -333l95 333h118zM371 684v-98h-278v98h278z" />
    <glyph glyph-name="uni04F0" unicode="&#x4f0;" horiz-adv-x="459" 
d="M461 656v-17l-168 -528q-19 -58 -54.5 -84.5t-95.5 -26.5h-78v106h71q18 0 29.5 7.5t18.5 26.5l-169 499v17h115l113 -361l106 361h112zM96.5 745q-18.5 18 -18.5 47t18 47t47 18t47 -17.5t18 -47.5t-18 -47.5t-47 -17.5q-28 0 -46.5 18zM279 744.5q-18 17.5 -18 47.5
t18 47.5t47 17.5t47 -18t18 -47t-18 -47t-47 -18t-47 17.5z" />
    <glyph glyph-name="uni04F1" unicode="&#x4f1;" horiz-adv-x="464" 
d="M448 499v-16l-171 -542q-19 -60 -54.5 -85.5t-98.5 -25.5h-62v103h51q25 0 37.5 9.5t19.5 34.5l8 28l-162 478v16h118l101 -333l95 333h118zM93.5 588q-18.5 18 -18.5 47t18 47t47 18t47 -17.5t18 -47.5t-18 -47.5t-47 -17.5q-28 0 -46.5 18zM276 587.5
q-18 17.5 -18 47.5t18 47.5t47 17.5t47 -18t18 -47t-18 -47t-47 -18t-47 17.5z" />
    <glyph glyph-name="uni04F2" unicode="&#x4f2;" horiz-adv-x="459" 
d="M461 656v-17l-168 -528q-19 -58 -54.5 -84.5t-95.5 -26.5h-78v106h71q18 0 29.5 7.5t18.5 26.5l-169 499v17h115l113 -361l106 361h112zM256 874v-102l-188 -60v100zM461 874v-102l-187 -60v100z" />
    <glyph glyph-name="uni04F3" unicode="&#x4f3;" horiz-adv-x="464" 
d="M448 499v-16l-171 -542q-19 -60 -54.5 -85.5t-98.5 -25.5h-62v103h51q25 0 37.5 9.5t19.5 34.5l8 28l-162 478v16h118l101 -333l95 333h118zM253 717v-102l-188 -60v100zM458 717v-102l-187 -60v100z" />
    <glyph glyph-name="uni04F4" unicode="&#x4f4;" horiz-adv-x="490" 
d="M439 656v-656h-116v253q-44 -10 -91 -10q-93 0 -141 46t-48 135v232h116v-224q0 -42 22.5 -62t69.5 -20q26 0 72 7v299h116zM106.5 745q-18.5 18 -18.5 47t18 47t47 18t47 -17.5t18 -47.5t-18 -47.5t-47 -17.5q-28 0 -46.5 18zM289 744.5q-18 17.5 -18 47.5t18 47.5
t47 17.5t47 -18t18 -47t-18 -47t-47 -18t-47 17.5z" />
    <glyph glyph-name="uni04F5" unicode="&#x4f5;" horiz-adv-x="450" 
d="M402 499v-499h-112v165q-43 -8 -80 -8q-82 0 -128 37.5t-46 104.5v200h111v-175q0 -32 20.5 -49.5t57.5 -17.5q22 0 65 8v234h112zM83.5 588q-18.5 18 -18.5 47t18 47t47 18t47 -17.5t18 -47.5t-18 -47.5t-47 -17.5q-28 0 -46.5 18zM266 587.5q-18 17.5 -18 47.5t18 47.5
t47 17.5t47 -18t18 -47t-18 -47t-47 -18t-47 17.5z" />
    <glyph glyph-name="uni04F8" unicode="&#x4f8;" horiz-adv-x="670" 
d="M169 656v-249h89q96 0 146 -47.5t50 -139.5v-33q0 -92 -50 -139.5t-146 -47.5h-205v656h116zM617 656v-656h-116v656h116zM316.5 125.5q21.5 20.5 21.5 62.5v33q0 41 -22 61t-67 20h-80v-197h80q46 0 67.5 20.5zM191.5 745q-18.5 18 -18.5 47t18 47t47 18t47 -17.5
t18 -47.5t-18 -47.5t-47 -17.5q-28 0 -46.5 18zM374 744.5q-18 17.5 -18 47.5t18 47.5t47 17.5t47 -18t18 -47t-18 -47t-47 -18t-47 17.5z" />
    <glyph glyph-name="uni04F9" unicode="&#x4f9;" horiz-adv-x="611" 
d="M364.5 301.5q45.5 -42.5 45.5 -124.5v-10q0 -81 -45.5 -124t-131.5 -43h-184v499h112v-155h72q86 0 131.5 -42.5zM562 499v-499h-113v499h113zM299 177q0 67 -77 67h-61v-144h61q40 0 58.5 16t18.5 51v10zM167.5 588q-18.5 18 -18.5 47t18 47t47 18t47 -17.5t18 -47.5
t-18 -47.5t-47 -17.5q-28 0 -46.5 18zM350 587.5q-18 17.5 -18 47.5t18 47.5t47 17.5t47 -18t18 -47t-18 -47t-47 -18t-47 17.5z" />
    <glyph glyph-name="uni1E62" unicode="&#x1e62;" horiz-adv-x="458" 
d="M81.5 39q-50.5 51 -50.5 147v30h113v-30q0 -93 83 -93q40 0 62.5 20t22.5 56v10q0 32 -18 54t-60 41l-58 26q-70 31 -104 73t-34 100v20q0 79 52.5 127t142.5 48q88 0 137.5 -47t49.5 -133v-30h-113v30q0 37 -17.5 56.5t-58.5 19.5q-37 0 -57.5 -17.5t-20.5 -49.5v-10
q0 -28 15.5 -48.5t57.5 -38.5l60 -26q73 -32 107.5 -76t34.5 -106v-20q0 -84 -53.5 -134t-147.5 -50q-95 0 -145.5 51zM176 -189.5q-21 20.5 -21 53.5q0 32 21 53t53 21q33 0 53.5 -21t20.5 -53q0 -34 -20.5 -54t-53.5 -20q-32 0 -53 20.5z" />
    <glyph glyph-name="uni1E63" unicode="&#x1e63;" horiz-adv-x="427" 
d="M82 29.5q-46 41.5 -46 118.5v18h111v-18q0 -29 17.5 -44.5t48.5 -15.5q30 0 48.5 13t18.5 35v8q0 19 -15.5 32.5t-47.5 22.5l-51 14q-60 16 -92 52t-32 86v16q0 66 47.5 105t127.5 39q83 0 127.5 -40t44.5 -115v-18h-109v18q0 26 -18 41t-47 15t-45.5 -12t-16.5 -32v-8
q0 -35 51 -50l62 -17q65 -18 95.5 -51t30.5 -91v-16q0 -68 -47.5 -107.5t-130.5 -39.5q-86 0 -132 41.5zM160 -189.5q-21 20.5 -21 53.5q0 32 21 53t53 21q33 0 53.5 -21t20.5 -53q0 -34 -20.5 -54t-53.5 -20q-32 0 -53 20.5z" />
    <glyph glyph-name="Wgrave" unicode="&#x1e80;" horiz-adv-x="782" 
d="M764 656v-17l-147 -639h-135l-91 435l-90 -435h-135l-147 639v17h115l101 -468l100 468h113l101 -466l100 466h115zM252 873l278 -62v-100l-278 63v99z" />
    <glyph glyph-name="wgrave" unicode="&#x1e81;" horiz-adv-x="678" 
d="M662 499v-16l-120 -483h-131l-72 312l-72 -312h-131l-120 483v16h107l80 -353l78 353h116l78 -353l80 353h107zM200 716l278 -62v-100l-278 63v99z" />
    <glyph glyph-name="Wacute" unicode="&#x1e82;" horiz-adv-x="782" 
d="M764 656v-17l-147 -639h-135l-91 435l-90 -435h-135l-147 639v17h115l101 -468l100 468h113l101 -466l100 466h115zM530 873v-99l-278 -63v100z" />
    <glyph glyph-name="wacute" unicode="&#x1e83;" horiz-adv-x="678" 
d="M662 499v-16l-120 -483h-131l-72 312l-72 -312h-131l-120 483v16h107l80 -353l78 353h116l78 -353l80 353h107zM478 716v-99l-278 -63v100z" />
    <glyph glyph-name="Wdieresis" unicode="&#x1e84;" horiz-adv-x="782" 
d="M764 656v-17l-147 -639h-135l-91 435l-90 -435h-135l-147 639v17h115l101 -468l100 468h113l101 -466l100 466h115zM252.5 745q-18.5 18 -18.5 47t18 47t47 18t47 -17.5t18 -47.5t-18 -47.5t-47 -17.5q-28 0 -46.5 18zM435 744.5q-18 17.5 -18 47.5t18 47.5t47 17.5
t47 -18t18 -47t-18 -47t-47 -18t-47 17.5z" />
    <glyph glyph-name="wdieresis" unicode="&#x1e85;" horiz-adv-x="678" 
d="M662 499v-16l-120 -483h-131l-72 312l-72 -312h-131l-120 483v16h107l80 -353l78 353h116l78 -353l80 353h107zM200.5 588q-18.5 18 -18.5 47t18 47t47 18t47 -17.5t18 -47.5t-18 -47.5t-47 -17.5q-28 0 -46.5 18zM383 587.5q-18 17.5 -18 47.5t18 47.5t47 17.5t47 -18
t18 -47t-18 -47t-47 -18t-47 17.5z" />
    <glyph glyph-name="uni1E9E" unicode="&#x1e9e;" horiz-adv-x="518" 
d="M461 311q31 -40 31 -102v-33q0 -84 -49.5 -130t-142.5 -46h-46v106h37q41 0 63.5 18t22.5 52v33q0 34 -22 51t-64 17h-37v90l99 183h-135q-25 0 -38 -13.5t-13 -38.5v-498h-116v499q0 76 39 116.5t127 40.5h257v-106l-102 -184q58 -15 89 -55z" />
    <glyph glyph-name="uni1EB8" unicode="&#x1eb8;" horiz-adv-x="429" 
d="M402 656v-106h-235v-170h218v-105h-218v-169h235v-106h-351v656h351zM173 -189.5q-21 20.5 -21 53.5q0 32 21 53t53 21q33 0 53.5 -21t20.5 -53q0 -34 -20.5 -54t-53.5 -20q-32 0 -53 20.5z" />
    <glyph glyph-name="uni1EB9" unicode="&#x1eb9;" 
d="M151 213v-56q0 -29 19.5 -47t52.5 -18q34 0 53 19t19 51h111q-2 -84 -49.5 -129t-133.5 -45q-87 0 -135 45t-48 126v180q0 82 48 127t135 45t135 -45t48 -127v-126h-255zM171 389q-20 -18 -20 -48v-36h144v36q0 30 -19.5 48t-52.5 18q-32 0 -52 -18zM170 -189.5
q-21 20.5 -21 53.5q0 32 21 53t53 21q33 0 53.5 -21t20.5 -53q0 -34 -20.5 -54t-53.5 -20q-32 0 -53 20.5z" />
    <glyph glyph-name="uni1EBC" unicode="&#x1ebc;" horiz-adv-x="429" 
d="M402 656v-106h-235v-170h218v-105h-218v-169h235v-106h-351v656h351zM228 744q-42 14 -66 14q-38 0 -75 -22v97q37 23 76 23q16 0 33.5 -4.5t33.5 -9.5q22 -7 37 -10.5t32 -3.5q35 0 66 16v-98q-32 -17 -66 -17q-28 0 -71 15z" />
    <glyph glyph-name="uni1EBD" unicode="&#x1ebd;" 
d="M151 213v-56q0 -29 19.5 -47t52.5 -18q34 0 53 19t19 51h111q-2 -84 -49.5 -129t-133.5 -45q-87 0 -135 45t-48 126v180q0 82 48 127t135 45t135 -45t48 -127v-126h-255zM171 389q-20 -18 -20 -48v-36h144v36q0 30 -19.5 48t-52.5 18q-32 0 -52 -18zM225 587
q-42 14 -66 14q-38 0 -75 -22v97q37 23 76 23q16 0 33.5 -4.5t33.5 -9.5q22 -7 37 -10.5t32 -3.5q35 0 66 16v-98q-32 -17 -66 -17q-28 0 -71 15z" />
    <glyph glyph-name="uni1ECA" unicode="&#x1eca;" horiz-adv-x="220" 
d="M168 656v-656h-116v656h116zM57 -189.5q-21 20.5 -21 53.5q0 32 21 53t53 21q33 0 53.5 -21t20.5 -53q0 -34 -20.5 -54t-53.5 -20q-32 0 -53 20.5z" />
    <glyph glyph-name="uni1ECB" unicode="&#x1ecb;" horiz-adv-x="210" 
d="M160 499v-499h-111v499h111zM52 582q-21 21 -21 53q0 33 21 53.5t53 20.5q33 0 53.5 -20t20.5 -54q0 -32 -20.5 -53t-53.5 -21q-32 0 -53 21zM52 -189.5q-21 20.5 -21 53.5q0 32 21 53t53 21q33 0 53.5 -21t20.5 -53q0 -34 -20.5 -54t-53.5 -20q-32 0 -53 20.5z" />
    <glyph glyph-name="uni1ECC" unicode="&#x1ecc;" horiz-adv-x="512" 
d="M104.5 39.5q-55.5 51.5 -55.5 140.5v296q0 88 56 140t151 52q96 0 151.5 -52t55.5 -140v-296q0 -89 -55.5 -140.5t-151.5 -51.5t-151.5 51.5zM324 118.5q24 24.5 24 69.5v279q0 46 -24 70.5t-68 24.5t-67.5 -24.5t-23.5 -70.5v-279q0 -45 23.5 -69.5t67.5 -24.5t68 24.5z
M203 -189.5q-21 20.5 -21 53.5q0 32 21 53t53 21q33 0 53.5 -21t20.5 -53q0 -34 -20.5 -54t-53.5 -20q-32 0 -53 20.5z" />
    <glyph glyph-name="uni1ECD" unicode="&#x1ecd;" 
d="M89.5 31.5q-49.5 43.5 -49.5 127.5v180q0 84 49.5 128t133.5 44t133.5 -43.5t49.5 -128.5v-180q0 -84 -49.5 -127.5t-133.5 -43.5t-133.5 43.5zM274.5 112q19.5 18 19.5 52v171q0 34 -20 52.5t-51 18.5t-51 -18.5t-20 -52.5v-171q0 -33 20 -51.5t51 -18.5q32 0 51.5 18z
M170 -189.5q-21 20.5 -21 53.5q0 32 21 53t53 21q33 0 53.5 -21t20.5 -53q0 -34 -20.5 -54t-53.5 -20q-32 0 -53 20.5z" />
    <glyph glyph-name="uni1EE4" unicode="&#x1ee4;" horiz-adv-x="495" 
d="M101 36q-50 48 -50 141v479h116v-478q0 -84 81 -84q80 0 80 84v478h116v-479q0 -94 -49.5 -141.5t-146.5 -47.5t-147 48zM195 -189.5q-21 20.5 -21 53.5q0 32 21 53t53 21q33 0 53.5 -21t20.5 -53q0 -34 -20.5 -54t-53.5 -20q-32 0 -53 20.5z" />
    <glyph glyph-name="uni1EE5" unicode="&#x1ee5;" horiz-adv-x="459" 
d="M411 499v-499h-97l-4 30q-21 -20 -49.5 -31t-60.5 -11q-73 0 -113.5 42.5t-40.5 118.5v350h111v-331q0 -36 16.5 -55.5t53.5 -19.5q21 0 40 10.5t32 27.5v368h112zM194 -189.5q-21 20.5 -21 53.5q0 32 21 53t53 21q33 0 53.5 -21t20.5 -53q0 -34 -20.5 -54t-53.5 -20
q-32 0 -53 20.5z" />
    <glyph glyph-name="Ygrave" unicode="&#x1ef2;" horiz-adv-x="454" 
d="M443 639l-158 -380v-259h-116v257l-158 382v17h113l103 -255l102 255h114v-17zM88 873l278 -62v-100l-278 63v99z" />
    <glyph glyph-name="ygrave" unicode="&#x1ef3;" horiz-adv-x="464" 
d="M448 499v-16l-171 -542q-19 -60 -54.5 -85.5t-98.5 -25.5h-62v103h51q25 0 37.5 9.5t19.5 34.5l8 28l-162 478v16h118l101 -333l95 333h118zM93 716l278 -62v-100l-278 63v99z" />
    <glyph glyph-name="uni1EF8" unicode="&#x1ef8;" horiz-adv-x="454" 
d="M443 639l-158 -380v-259h-116v257l-158 382v17h113l103 -255l102 255h114v-17zM229 744q-42 14 -66 14q-38 0 -75 -22v97q37 23 76 23q16 0 33.5 -4.5t33.5 -9.5q22 -7 37 -10.5t32 -3.5q35 0 66 16v-98q-32 -17 -66 -17q-28 0 -71 15z" />
    <glyph glyph-name="uni1EF9" unicode="&#x1ef9;" horiz-adv-x="464" 
d="M448 499v-16l-171 -542q-19 -60 -54.5 -85.5t-98.5 -25.5h-62v103h51q25 0 37.5 9.5t19.5 34.5l8 28l-162 478v16h118l101 -333l95 333h118zM234 587q-42 14 -66 14q-38 0 -75 -22v97q37 23 76 23q16 0 33.5 -4.5t33.5 -9.5q22 -7 37 -10.5t32 -3.5q35 0 66 16v-98
q-32 -17 -66 -17q-28 0 -71 15z" />
    <glyph glyph-name="uni2009" unicode="&#x2009;" horiz-adv-x="115" 
 />
    <glyph glyph-name="uni2010" unicode="&#x2010;" horiz-adv-x="334" 
d="M278 329v-103h-223v103h223z" />
    <glyph glyph-name="uni2011" unicode="&#x2011;" horiz-adv-x="334" 
d="M278 329v-103h-223v103h223z" />
    <glyph glyph-name="endash" unicode="&#x2013;" horiz-adv-x="371" 
d="M324 329v-103h-277v103h277z" />
    <glyph glyph-name="emdash" unicode="&#x2014;" horiz-adv-x="748" 
d="M681 330v-102h-615v102h615z" />
    <glyph glyph-name="uni2015" unicode="&#x2015;" horiz-adv-x="748" 
d="M681 330v-102h-615v102h615z" />
    <glyph glyph-name="quoteleft" unicode="&#x2018;" horiz-adv-x="284" 
d="M60 447l76 249h102l-50 -265h-128v16z" />
    <glyph glyph-name="quoteright" unicode="&#x2019;" horiz-adv-x="284" 
d="M224 700v-16l-76 -249h-102l50 265h128z" />
    <glyph glyph-name="quotesinglbase" unicode="&#x201a;" horiz-adv-x="284" 
d="M224 132v-16l-76 -249h-102l50 265h128z" />
    <glyph glyph-name="quotedblleft" unicode="&#x201c;" horiz-adv-x="486" 
d="M60 447l76 249h101l-51 -265h-126v16zM263 447l76 249h101l-50 -265h-127v16z" />
    <glyph glyph-name="quotedblright" unicode="&#x201d;" horiz-adv-x="486" 
d="M223 700v-16l-76 -249h-101l50 265h127zM426 700v-16l-76 -249h-101l51 265h126z" />
    <glyph glyph-name="quotedblbase" unicode="&#x201e;" horiz-adv-x="486" 
d="M223 132v-16l-76 -249h-101l50 265h127zM426 132v-16l-76 -249h-101l51 265h126z" />
    <glyph glyph-name="dagger" unicode="&#x2020;" horiz-adv-x="351" 
d="M335 470h-106v-241h-106v241h-107v104h107v112h106v-112h106v-104z" />
    <glyph glyph-name="daggerdbl" unicode="&#x2021;" horiz-adv-x="351" 
d="M228 485v-68h107v-98h-107v-103h-104v103h-108v98h108v68h-108v98h108v103h104v-103h107v-98h-107z" />
    <glyph glyph-name="bullet" unicode="&#x2022;" horiz-adv-x="440" 
d="M113 198.5q-42 41.5 -42 107.5t42 107t107 41q67 0 108.5 -40.5t41.5 -107.5q0 -66 -41.5 -107.5t-108.5 -41.5q-65 0 -107 41.5z" />
    <glyph glyph-name="ellipsis" unicode="&#x2026;" horiz-adv-x="776" 
d="M91 8q-20 20 -20 51t20 50.5t51 19.5q32 0 51.5 -19.5t19.5 -50.5t-19.5 -51t-51.5 -20q-31 0 -51 20zM337 8q-20 20 -20 51t20 50.5t51 19.5q32 0 51.5 -19.5t19.5 -50.5t-19.5 -51t-51.5 -20q-31 0 -51 20zM583 8q-20 20 -20 51t20 50.5t51 19.5q32 0 51.5 -19.5
t19.5 -50.5t-19.5 -51t-51.5 -20q-31 0 -51 20z" />
    <glyph glyph-name="perthousand" unicode="&#x2030;" horiz-adv-x="1052" 
d="M63 377.5q-36 34.5 -36 93.5v65q0 60 36.5 94t99.5 34t99 -34t36 -94v-65q0 -60 -36 -94t-99 -34q-64 0 -100 34.5zM211 482v43q0 26 -12.5 39.5t-35.5 13.5t-35.5 -14t-12.5 -39v-43q0 -53 48 -53t48 53zM463 27.5q-36 34.5 -36 93.5v65q0 60 36.5 94t99.5 34t99 -34
t36 -94v-65q0 -60 -36 -94t-99 -34q-64 0 -100 34.5zM611 132v43q0 26 -12.5 39.5t-35.5 13.5t-35.5 -14t-12.5 -39v-43q0 -53 48 -53t48 53zM542 656h98v-17l-457 -639h-97v16zM789 27.5q-36 34.5 -36 93.5v65q0 60 36.5 94t99.5 34t99 -34t36 -94v-65q0 -60 -36 -94
t-99 -34q-64 0 -100 34.5zM937 132v43q0 26 -12.5 39.5t-35.5 13.5t-35.5 -14t-12.5 -39v-43q0 -53 48 -53t48 53z" />
    <glyph glyph-name="minute" unicode="&#x2032;" horiz-adv-x="284" 
d="M224 656v-16l-76 -249h-102l50 265h128z" />
    <glyph glyph-name="second" unicode="&#x2033;" horiz-adv-x="486" 
d="M223 656v-16l-76 -249h-101l50 265h127zM426 656v-16l-76 -249h-101l51 265h126z" />
    <glyph glyph-name="guilsinglleft" unicode="&#x2039;" horiz-adv-x="338" 
d="M55 286l109 213h117v-17l-106 -205l106 -203v-17h-117l-109 212v17z" />
    <glyph glyph-name="guilsinglright" unicode="&#x203a;" horiz-adv-x="338" 
d="M174 57h-117v17l106 205l-106 203v17h117l109 -212v-17z" />
    <glyph glyph-name="fraction" unicode="&#x2044;" horiz-adv-x="334" 
d="M346 656h98v-17l-457 -639h-97v16z" />
    <glyph glyph-name="uni2070" unicode="&#x2070;" horiz-adv-x="333" 
d="M64 370q-39 35 -39 92v175q0 58 38.5 92.5t103.5 34.5q64 0 102.5 -34.5t38.5 -92.5v-175q0 -58 -38.5 -92.5t-102.5 -34.5t-103 35zM199 435q11 12 11 35v159q0 23 -11 35t-32 12t-32.5 -12.5t-11.5 -34.5v-159q0 -22 11.5 -34.5t32.5 -12.5t32 12z" />
    <glyph glyph-name="uni2074" unicode="&#x2074;" horiz-adv-x="333" 
d="M16 421v88q36 104 46 248h96v-14q-10 -134 -41 -234h76v177h93v-177h43v-88h-43v-78h-93v78h-177z" />
    <glyph glyph-name="uni2075" unicode="&#x2075;" horiz-adv-x="333" 
d="M68.5 368.5q-37.5 33.5 -37.5 92.5v6h94v-6q0 -37 46 -37q22 0 34 10t12 29v25q0 18 -13 28.5t-35 10.5q-16 0 -27 -5t-15 -14h-95l14 249h248v-89h-165l-4 -71q29 17 71 17q56 0 86.5 -30.5t30.5 -86.5v-36q0 -61 -36.5 -93.5t-104.5 -32.5q-66 0 -103.5 33.5z" />
    <glyph glyph-name="uni2076" unicode="&#x2076;" horiz-adv-x="333" 
d="M65.5 369.5q-38.5 34.5 -38.5 93.5v170q0 61 38.5 96.5t104.5 35.5q68 0 104.5 -32t36.5 -90v-6h-98v6q0 17 -11.5 26.5t-31.5 9.5q-21 0 -32.5 -11t-11.5 -31v-43q28 17 63 17q55 0 88.5 -31t33.5 -82v-41q0 -58 -37.5 -90t-103.5 -32t-104.5 34.5zM201.5 430.5
q11.5 10.5 11.5 27.5v30q0 17 -11.5 26.5t-32.5 9.5q-26 0 -43 -17v-47q0 -18 12 -29t32 -11t31.5 10.5z" />
    <glyph glyph-name="uni2077" unicode="&#x2077;" horiz-adv-x="333" 
d="M119.5 508q30.5 79 86.5 160h-188v88h285v-88q-53 -79 -83.5 -159t-30.5 -142v-24h-100v24q0 62 30.5 141z" />
    <glyph glyph-name="uni2078" unicode="&#x2078;" horiz-adv-x="333" 
d="M62.5 364.5q-37.5 29.5 -37.5 82.5v30q0 25 13 45t37 34q-44 27 -44 76v30q0 47 37 75t99 28t99 -28t37 -75v-30q0 -49 -44 -76q24 -13 36.5 -33.5t12.5 -45.5v-30q0 -52 -37.5 -82t-103.5 -30q-67 0 -104.5 29.5zM200.5 605q11.5 10 11.5 28v14q0 18 -12 28t-33 10
q-22 0 -34 -10t-12 -28v-14q0 -18 12 -28t34 -10t33.5 10zM200.5 425.5q12.5 10.5 12.5 29.5v18q0 18 -12.5 28.5t-33.5 10.5q-22 0 -34.5 -10.5t-12.5 -28.5v-18q0 -18 12.5 -29t34.5 -11q21 0 33.5 10.5z" />
    <glyph glyph-name="uni2079" unicode="&#x2079;" horiz-adv-x="333" 
d="M58.5 366q-36.5 32 -36.5 90v6h98v-6q0 -17 11.5 -26.5t31.5 -9.5q21 0 32.5 11t11.5 31v43q-28 -17 -63 -17q-55 0 -88.5 31t-33.5 82v41q0 58 37.5 90t103.5 32t104.5 -34.5t38.5 -93.5v-170q0 -61 -38.5 -96.5t-104.5 -35.5q-68 0 -104.5 32zM207 592v47q0 18 -12 29
t-32 11t-31.5 -10.5t-11.5 -27.5v-30q0 -17 11.5 -26.5t32.5 -9.5q26 0 43 17z" />
    <glyph glyph-name="uni2080" unicode="&#x2080;" horiz-adv-x="333" 
d="M64 -73q-39 35 -39 92v175q0 58 38.5 92.5t103.5 34.5q64 0 102.5 -34.5t38.5 -92.5v-175q0 -58 -38.5 -92.5t-102.5 -34.5t-103 35zM199 -8q11 12 11 35v159q0 23 -11 35t-32 12t-32.5 -12.5t-11.5 -34.5v-159q0 -22 11.5 -34.5t32.5 -12.5t32 12z" />
    <glyph glyph-name="uni2081" unicode="&#x2081;" horiz-adv-x="333" 
d="M138 -12v214q-20 -6 -41 -6h-68v89h73q36 0 36 28h98v-325h93v-88h-300v88h109z" />
    <glyph glyph-name="uni2082" unicode="&#x2082;" horiz-adv-x="333" 
d="M140 96q38 40 51.5 59t13.5 34v7q0 17 -11.5 27t-30.5 10q-21 0 -32.5 -10t-11.5 -27v-14h-94v17q0 59 36.5 91t103.5 32t101.5 -29.5t34.5 -87.5v-7q0 -34 -18 -67t-61 -78l-62 -65h150v-88h-274v88z" />
    <glyph glyph-name="uni2083" unicode="&#x2083;" horiz-adv-x="333" 
d="M57.5 -75.5q-39.5 32.5 -39.5 87.5v18h95v-11q0 -17 13.5 -27.5t35.5 -10.5q23 0 35.5 10.5t12.5 29.5v21q0 36 -55 36h-68v59l92 88h-149v89h266v-89l-71 -69l7 -2q39 -10 56.5 -34t17.5 -65v-42q0 -55 -39 -88t-104 -33q-66 0 -105.5 32.5z" />
    <glyph glyph-name="uni2084" unicode="&#x2084;" horiz-adv-x="333" 
d="M16 -22v88q36 104 46 248h96v-14q-10 -134 -41 -234h76v177h93v-177h43v-88h-43v-78h-93v78h-177z" />
    <glyph glyph-name="uni2085" unicode="&#x2085;" horiz-adv-x="333" 
d="M68.5 -74.5q-37.5 33.5 -37.5 92.5v6h94v-6q0 -37 46 -37q22 0 34 10t12 29v25q0 18 -13 28.5t-35 10.5q-16 0 -27 -5t-15 -14h-95l14 249h248v-89h-165l-4 -71q29 17 71 17q56 0 86.5 -30.5t30.5 -86.5v-36q0 -61 -36.5 -93.5t-104.5 -32.5q-66 0 -103.5 33.5z" />
    <glyph glyph-name="uni2086" unicode="&#x2086;" horiz-adv-x="333" 
d="M65.5 -73.5q-38.5 34.5 -38.5 93.5v170q0 61 38.5 96.5t104.5 35.5q68 0 104.5 -32t36.5 -90v-6h-98v6q0 17 -11.5 26.5t-31.5 9.5q-21 0 -32.5 -11t-11.5 -31v-43q28 17 63 17q55 0 88.5 -31t33.5 -82v-41q0 -58 -37.5 -90t-103.5 -32t-104.5 34.5zM201.5 -12.5
q11.5 10.5 11.5 27.5v30q0 17 -11.5 26.5t-32.5 9.5q-26 0 -43 -17v-47q0 -18 12 -29t32 -11t31.5 10.5z" />
    <glyph glyph-name="uni2087" unicode="&#x2087;" horiz-adv-x="333" 
d="M119.5 65q30.5 79 86.5 160h-188v88h285v-88q-53 -79 -83.5 -159t-30.5 -142v-24h-100v24q0 62 30.5 141z" />
    <glyph glyph-name="uni2088" unicode="&#x2088;" horiz-adv-x="333" 
d="M62.5 -78.5q-37.5 29.5 -37.5 82.5v30q0 25 13 45t37 34q-44 27 -44 76v30q0 47 37 75t99 28t99 -28t37 -75v-30q0 -49 -44 -76q24 -13 36.5 -33.5t12.5 -45.5v-30q0 -52 -37.5 -82t-103.5 -30q-67 0 -104.5 29.5zM200.5 162q11.5 10 11.5 28v14q0 18 -12 28t-33 10
q-22 0 -34 -10t-12 -28v-14q0 -18 12 -28t34 -10t33.5 10zM200.5 -17.5q12.5 10.5 12.5 29.5v18q0 18 -12.5 28.5t-33.5 10.5q-22 0 -34.5 -10.5t-12.5 -28.5v-18q0 -18 12.5 -29t34.5 -11q21 0 33.5 10.5z" />
    <glyph glyph-name="uni2089" unicode="&#x2089;" horiz-adv-x="333" 
d="M58.5 -77q-36.5 32 -36.5 90v6h98v-6q0 -17 11.5 -26.5t31.5 -9.5q21 0 32.5 11t11.5 31v43q-28 -17 -63 -17q-55 0 -88.5 31t-33.5 82v41q0 58 37.5 90t103.5 32t104.5 -34.5t38.5 -93.5v-170q0 -61 -38.5 -96.5t-104.5 -35.5q-68 0 -104.5 32zM207 149v47q0 18 -12 29
t-32 11t-31.5 -10.5t-11.5 -27.5v-30q0 -17 11.5 -26.5t32.5 -9.5q26 0 43 17z" />
    <glyph glyph-name="Euro" unicode="&#x20ac;" horiz-adv-x="490" 
d="M361 402v73q0 46 -18.5 67t-59.5 21t-63.5 -22t-22.5 -64v-21h113v-98h-113v-67h113v-98h-113v-15q0 -85 81 -85q40 0 61.5 23t21.5 66v67h113v-68q0 -193 -191 -193q-95 0 -147.5 48.5t-52.5 136.5v20h-80v98h80v67h-80v98h80v27q0 88 52.5 136.5t147.5 48.5t143 -49
t48 -145v-72h-113z" />
    <glyph glyph-name="uni20AE" unicode="&#x20ae;" horiz-adv-x="490" 
d="M303 549v-139l129 37v-104l-129 -37v-68l129 37v-101l-129 -36v-138h-115v112l-128 -37v100l128 37v68l-128 -37v104l128 37v165h-162v107h438v-107h-161z" />
    <glyph glyph-name="uni20B4" unicode="&#x20b4;" horiz-adv-x="490" 
d="M345 357l-72 -60h185v-96h-287q-11 -19 -11 -41q0 -32 22 -50.5t61 -18.5q38 0 61.5 17t23.5 45v10h111v-10q0 -75 -53 -120t-141 -45q-57 0 -101.5 19.5t-69.5 55t-25 80.5q0 28 11 58h-28v96h100l6 5l70 58h-176v97h281q13 22 13 45q0 29 -19 46t-52 17q-34 0 -55 -17
t-21 -44v-10h-110v10q0 73 51.5 118.5t134.5 45.5q53 0 94 -19t64 -53t23 -78q0 -32 -13 -61h35v-97h-109z" />
    <glyph glyph-name="uni20B8" unicode="&#x20b8;" horiz-adv-x="490" 
d="M461 656v-100h-432v100h432zM29 391v100h432v-100h-158v-391h-116v391h-158z" />
    <glyph glyph-name="uni20B9" unicode="&#x20b9;" horiz-adv-x="490" 
d="M368 557q16 -27 19 -64h83v-99h-85q-11 -74 -66 -115.5t-143 -42.5l269 -219v-17h-131l-291 236v93h144q91 0 108 65h-252v99h255q-3 39 -17 64h-238v99h447v-99h-102z" />
    <glyph glyph-name="uni20BA" unicode="&#x20ba;" horiz-adv-x="490" 
d="M475 239v-44q0 -90 -55 -142.5t-150 -52.5h-187v209l-80 -32v109l80 32v75l-80 -32v108l80 32v155h116v-114l181 75v-109l-181 -75v-74l181 75v-109l-181 -75v-144h68q43 0 67.5 24t24.5 66v43h116z" />
    <glyph glyph-name="uni20BD" unicode="&#x20bd;" horiz-adv-x="490" 
d="M431.5 609q50.5 -47 50.5 -135v-20q0 -88 -50.5 -134t-146.5 -46h-82v-65h201v-100h-201v-109h-114v109h-83v100h83v65h-83v100h83v282h196q96 0 146.5 -47zM366 474q0 39 -20.5 59.5t-67.5 20.5h-75v-180h75q43 0 65.5 18.5t22.5 61.5v20z" />
    <glyph glyph-name="uni20BF" unicode="&#x20bf;" horiz-adv-x="490" 
d="M433.5 284.5q19.5 -32.5 19.5 -75.5v-18q0 -53 -23 -91t-65 -56v-104h-100v88h-55v-88h-100v88h-49v601h49v88h100v-88h55v88h100v-107q37 -19 57 -53t20 -81v-19q0 -85 -63 -123q35 -17 54.5 -49.5zM251 533h-83v-147h84q44 0 63.5 15.5t19.5 51.5v17q0 63 -84 63z
M262 125q82 0 82 66v16q0 37 -20 54.5t-61 17.5h-95v-154h94z" />
    <glyph glyph-name="uni2113" unicode="&#x2113;" horiz-adv-x="486" 
d="M320 183h112l-3 -25q-9 -83 -56 -126.5t-128 -43.5q-79 0 -121.5 39t-42.5 110q0 10 2 32l1 12l-75 -39v111l90 48l22 183q11 93 58 138.5t130 45.5q77 0 119 -38.5t42 -108.5q0 -76 -48 -137t-148 -113l-72 -38l-8 -64q-1 -5 -1 -14q0 -29 15.5 -46t42.5 -17
q28 0 45 19.5t22 56.5zM256 543q-19 -21 -23 -60l-15 -122l34 19q56 32 81 62t25 66q0 26 -14.5 41t-39.5 15q-29 0 -48 -21z" />
    <glyph glyph-name="uni2116" unicode="&#x2116;" horiz-adv-x="855" 
d="M764 629.5q40 -38.5 40 -98.5v-17q0 -60 -40 -98.5t-103 -38.5t-103 38.5t-40 98.5v17q0 59 40.5 98t102.5 39q63 0 103 -38.5zM337 656h111v-656h-123l-163 412v-412h-111v656h123l163 -418v418zM716 531q0 23 -15.5 38t-39.5 15t-39.5 -15t-15.5 -38v-17
q0 -23 15.5 -37.5t39.5 -14.5t39.5 14.5t15.5 37.5v17zM538 284h246v-96h-246v96z" />
    <glyph glyph-name="trademark" unicode="&#x2122;" horiz-adv-x="542" 
d="M11 656h199v-68h-62v-251h-75v251h-62v68zM503 337h-66v173l-43 -173h-50l-43 175v-175h-67v319h89l46 -187l46 187h88v-319z" />
    <glyph glyph-name="uni2126" unicode="&#x2126;" horiz-adv-x="512" 
d="M440 194q-23 -42 -63 -65v-23h86v-106h-182v207q67 18 67 88v172q0 45 -24 70t-68 25t-67.5 -24.5t-23.5 -70.5v-172q0 -36 17.5 -58.5t49.5 -29.5v-207h-183v106h86v24q-40 22 -63 64t-23 96v182q0 90 56 143t151 53t151 -53t56 -143v-182q0 -54 -23 -96z" />
    <glyph glyph-name="estimated" unicode="&#x212e;" horiz-adv-x="758" 
d="M159 322v-233q40 -40 96 -61t124 -21q92 0 157 36.5t99 106.5h50q-42 -75 -122.5 -117.5t-183.5 -42.5t-181.5 41t-122 115t-43.5 171v21q0 97 43.5 171.5t122 115.5t181.5 41t181.5 -41t122 -115.5t43.5 -171.5v-16h-567zM254.5 627.5q-56.5 -21.5 -96.5 -62.5v-224h439
v223q-40 41 -95.5 63t-122.5 22q-68 0 -124.5 -21.5z" />
    <glyph glyph-name="oneeighth" unicode="&#x215b;" horiz-adv-x="952" 
d="M138 331v214q-20 -6 -41 -6h-68v89h73q36 0 36 28h98v-325h93v-88h-300v88h109zM679 656h98v-17l-457 -639h-97v16zM681.5 21.5q-37.5 29.5 -37.5 82.5v30q0 25 13 45t37 34q-44 27 -44 76v30q0 47 37 75t99 28t99 -28t37 -75v-30q0 -49 -44 -76q24 -13 36.5 -33.5
t12.5 -45.5v-30q0 -52 -37.5 -82t-103.5 -30q-67 0 -104.5 29.5zM819.5 262q11.5 10 11.5 28v14q0 18 -12 28t-33 10q-22 0 -34 -10t-12 -28v-14q0 -18 12 -28t34 -10t33.5 10zM819.5 82.5q12.5 10.5 12.5 29.5v18q0 18 -12.5 28.5t-33.5 10.5q-22 0 -34.5 -10.5
t-12.5 -28.5v-18q0 -18 12.5 -29t34.5 -11q21 0 33.5 10.5z" />
    <glyph glyph-name="threeeighths" unicode="&#x215c;" horiz-adv-x="918" 
d="M57.5 267.5q-39.5 32.5 -39.5 87.5v18h95v-11q0 -17 13.5 -27.5t35.5 -10.5q23 0 35.5 10.5t12.5 29.5v21q0 36 -55 36h-68v59l92 88h-149v89h266v-89l-71 -69l7 -2q39 -10 56.5 -34t17.5 -65v-42q0 -55 -39 -88t-104 -33q-66 0 -105.5 32.5zM645 656h98v-17l-457 -639
h-97v16zM647.5 21.5q-37.5 29.5 -37.5 82.5v30q0 25 13 45t37 34q-44 27 -44 76v30q0 47 37 75t99 28t99 -28t37 -75v-30q0 -49 -44 -76q24 -13 36.5 -33.5t12.5 -45.5v-30q0 -52 -37.5 -82t-103.5 -30q-67 0 -104.5 29.5zM785.5 262q11.5 10 11.5 28v14q0 18 -12 28t-33 10
q-22 0 -34 -10t-12 -28v-14q0 -18 12 -28t34 -10t33.5 10zM785.5 82.5q12.5 10.5 12.5 29.5v18q0 18 -12.5 28.5t-33.5 10.5q-22 0 -34.5 -10.5t-12.5 -28.5v-18q0 -18 12.5 -29t34.5 -11q21 0 33.5 10.5z" />
    <glyph glyph-name="fiveeighths" unicode="&#x215d;" horiz-adv-x="918" 
d="M68.5 268.5q-37.5 33.5 -37.5 92.5v6h94v-6q0 -37 46 -37q22 0 34 10t12 29v25q0 18 -13 28.5t-35 10.5q-16 0 -27 -5t-15 -14h-95l14 249h248v-89h-165l-4 -71q29 17 71 17q56 0 86.5 -30.5t30.5 -86.5v-36q0 -61 -36.5 -93.5t-104.5 -32.5q-66 0 -103.5 33.5zM645 656
h98v-17l-457 -639h-97v16zM647.5 21.5q-37.5 29.5 -37.5 82.5v30q0 25 13 45t37 34q-44 27 -44 76v30q0 47 37 75t99 28t99 -28t37 -75v-30q0 -49 -44 -76q24 -13 36.5 -33.5t12.5 -45.5v-30q0 -52 -37.5 -82t-103.5 -30q-67 0 -104.5 29.5zM785.5 262q11.5 10 11.5 28v14
q0 18 -12 28t-33 10q-22 0 -34 -10t-12 -28v-14q0 -18 12 -28t34 -10t33.5 10zM785.5 82.5q12.5 10.5 12.5 29.5v18q0 18 -12.5 28.5t-33.5 10.5q-22 0 -34.5 -10.5t-12.5 -28.5v-18q0 -18 12.5 -29t34.5 -11q21 0 33.5 10.5z" />
    <glyph glyph-name="seveneighths" unicode="&#x215e;" horiz-adv-x="883" 
d="M119.5 408q30.5 79 86.5 160h-188v88h285v-88q-53 -79 -83.5 -159t-30.5 -142v-24h-100v24q0 62 30.5 141zM610 656h98v-17l-457 -639h-97v16zM612.5 21.5q-37.5 29.5 -37.5 82.5v30q0 25 13 45t37 34q-44 27 -44 76v30q0 47 37 75t99 28t99 -28t37 -75v-30
q0 -49 -44 -76q24 -13 36.5 -33.5t12.5 -45.5v-30q0 -52 -37.5 -82t-103.5 -30q-67 0 -104.5 29.5zM750.5 262q11.5 10 11.5 28v14q0 18 -12 28t-33 10q-22 0 -34 -10t-12 -28v-14q0 -18 12 -28t34 -10t33.5 10zM750.5 82.5q12.5 10.5 12.5 29.5v18q0 18 -12.5 28.5
t-33.5 10.5q-22 0 -34.5 -10.5t-12.5 -28.5v-18q0 -18 12.5 -29t34.5 -11q21 0 33.5 10.5z" />
    <glyph glyph-name="arrowleft" unicode="&#x2190;" horiz-adv-x="734" 
d="M674 233h-418l192 -191v-23h-142l-265 265v22l265 265h142v-22l-193 -193l419 1v-124z" />
    <glyph glyph-name="arrowup" unicode="&#x2191;" horiz-adv-x="734" 
d="M646 350v-144h-21l-195 196v-395h-123v396l-196 -197h-22v144l268 268h21z" />
    <glyph glyph-name="arrowright" unicode="&#x2192;" horiz-adv-x="734" 
d="M693 306v-22l-265 -265h-142v23l192 191h-418v124l419 -1l-193 193v22h142z" />
    <glyph glyph-name="arrowdown" unicode="&#x2193;" horiz-adv-x="734" 
d="M646 379v-144l-268 -268h-21l-268 268v144h22l196 -197v396h123v-395l195 196h21z" />
    <glyph glyph-name="uni2196" unicode="&#x2196;" horiz-adv-x="734" 
d="M547 49l-304 304l1 -287h-15l-98 97v376l15 15h374l98 -98v-16h-287l303 -303z" />
    <glyph glyph-name="uni2197" unicode="&#x2197;" horiz-adv-x="734" 
d="M603 539v-376l-98 -97h-15l1 287l-304 -304l-87 88l303 303h-287v16l98 98h374z" />
    <glyph glyph-name="uni2198" unicode="&#x2198;" horiz-adv-x="734" 
d="M603 429v-376l-15 -15h-374l-98 98v16h287l-303 303l87 88l304 -304l-1 287h15z" />
    <glyph glyph-name="uni2199" unicode="&#x2199;" horiz-adv-x="734" 
d="M331 152h287v-16l-98 -98h-374l-15 15v376l98 97h15l-1 -287l304 304l87 -88z" />
    <glyph glyph-name="uni21E1" unicode="&#x21e1;" horiz-adv-x="734" 
d="M328.5 509q-16.5 16 -16.5 38q0 23 16.5 39.5t38.5 16.5q23 0 39.5 -16.5t16.5 -39.5q0 -22 -16.5 -38t-39.5 -16q-22 0 -38.5 16zM218 404q-16 16 -16 39t16 39t39 16t39.5 -16t16.5 -39t-16.5 -39t-39.5 -16t-39 16zM438.5 404q-16.5 16 -16.5 39t16.5 39t39.5 16
q22 0 38 -16t16 -39t-16 -39t-38 -16q-23 0 -39.5 16zM328.5 303.5q-16.5 16.5 -16.5 39.5t16.5 39t38.5 16q23 0 39.5 -16t16.5 -39t-16.5 -39.5t-39.5 -16.5q-22 0 -38.5 16.5zM106.5 301q-16.5 16 -16.5 39t16.5 39t39.5 16q22 0 38.5 -16.5t16.5 -38.5q0 -23 -16.5 -39
t-38.5 -16q-23 0 -39.5 16zM550.5 301q-16.5 16 -16.5 39t16.5 39t38.5 16q23 0 39 -16t16 -39q0 -24 -16 -39.5t-39 -15.5q-22 0 -38.5 16zM328.5 155.5q-16.5 16.5 -16.5 39.5t16.5 39t38.5 16q23 0 39.5 -16t16.5 -39t-16.5 -39.5t-39.5 -16.5q-22 0 -38.5 16.5z
M328.5 8.5q-16.5 16.5 -16.5 38.5q0 23 16.5 39.5t38.5 16.5q23 0 39.5 -16.5t16.5 -39.5q0 -22 -16.5 -38.5t-39.5 -16.5q-22 0 -38.5 16.5z" />
    <glyph glyph-name="uni21E3" unicode="&#x21e3;" horiz-adv-x="734" 
d="M406.5 576.5q16.5 -16.5 16.5 -38.5q0 -23 -16.5 -39.5t-39.5 -16.5q-22 0 -38.5 16.5t-16.5 39.5q0 22 16.5 38.5t38.5 16.5q23 0 39.5 -16.5zM406.5 429.5q16.5 -16.5 16.5 -39.5t-16.5 -39t-39.5 -16q-22 0 -38.5 16.5t-16.5 38.5q0 23 16.5 39.5t38.5 16.5
q23 0 39.5 -16.5zM184.5 284q16.5 -16 16.5 -39q0 -22 -16.5 -38.5t-38.5 -16.5q-23 0 -39.5 16t-16.5 39t16.5 39t39.5 16q22 0 38.5 -16zM628 284.5q16 -15.5 16 -39.5q0 -22 -16 -38.5t-39 -16.5q-22 0 -38.5 16.5t-16.5 38.5q0 23 16.5 39t38.5 16q23 0 39 -15.5z
M406.5 281.5q16.5 -16.5 16.5 -39.5t-16.5 -39t-39.5 -16q-22 0 -38.5 16.5t-16.5 38.5q0 23 16.5 39.5t38.5 16.5q23 0 39.5 -16.5zM296.5 181q16.5 -16 16.5 -39t-16.5 -39t-39.5 -16t-39 16t-16 39t16 39t39 16t39.5 -16zM516 181q16 -16 16 -39t-16 -39t-38 -16
q-23 0 -39.5 16t-16.5 39t16.5 39t39.5 16q22 0 38 -16zM406.5 76q16.5 -16 16.5 -38q0 -23 -16.5 -39.5t-39.5 -16.5q-22 0 -38.5 16.5t-16.5 39.5q0 22 16.5 38t38.5 16q23 0 39.5 -16z" />
    <glyph glyph-name="partialdiff" unicode="&#x2202;" horiz-adv-x="478" 
d="M401 619.5q51 -48.5 51 -133.5q0 -25 -2 -38l-35 -276q-11 -91 -60 -137.5t-135 -46.5q-88 0 -141 45t-53 119q0 15 1 22l9 82q8 73 58 116t126 43q63 0 106 -30l10 78q1 6 1 18q0 38 -21.5 60t-59.5 22q-28 0 -48 -12.5t-23 -32.5l-1 -7h-117l1 7q11 71 61 110.5
t131 39.5q90 0 141 -48.5zM299 170l12 98q-25 42 -80 42q-34 0 -55.5 -19.5t-25.5 -53.5l-7 -62l-1 -12q0 -32 21 -51t57 -19q70 0 79 77z" />
    <glyph glyph-name="uni2206" unicode="&#x2206;" horiz-adv-x="481" 
d="M452 106v-106h-423v106l143 550h136zM135 106h209l-104 433z" />
    <glyph glyph-name="product" unicode="&#x220f;" horiz-adv-x="609" 
d="M10 549v107h589v-107h-105v-648h-115v648h-149v-648h-115v648h-105z" />
    <glyph glyph-name="summation" unicode="&#x2211;" horiz-adv-x="429" 
d="M402 550h-233l152 -247v-51l-152 -245h233v-106h-357v107l168 270l-168 271v107h357v-106z" />
    <glyph glyph-name="minus" unicode="&#x2212;" horiz-adv-x="490" 
d="M447 381v-106h-405v106h405z" />
    <glyph glyph-name="uni2215" unicode="&#x2215;" horiz-adv-x="485" 
d="M319 724h105v-19l-258 -773h-105v19z" />
    <glyph glyph-name="uni2219" unicode="&#x2219;" horiz-adv-x="284" 
d="M91 277q-20 20 -20 51t20 51t51 20q32 0 51.5 -19.5t19.5 -51.5q0 -31 -19.5 -51t-51.5 -20q-31 0 -51 20z" />
    <glyph glyph-name="radical" unicode="&#x221a;" horiz-adv-x="556" 
d="M556 554h-125l-172 -653h-116l-127 425v16h102l79 -282l151 596h208v-102z" />
    <glyph glyph-name="infinity" unicode="&#x221e;" horiz-adv-x="743" 
d="M672 502.5q45 -52.5 45 -144.5v-59q0 -92 -45 -144.5t-125 -52.5q-60 0 -98 27.5t-77 101.5q-39 -74 -77 -101.5t-98 -27.5q-80 0 -125.5 52t-45.5 145v59q0 93 45.5 145t125.5 52q48 0 80.5 -17t52 -43t42.5 -69q24 45 45 71.5t52.5 42t77.5 15.5q80 0 125 -52.5z
M313 329l-25 47q-22 42 -39 58t-46 16q-32 0 -51 -24.5t-19 -67.5v-59q0 -43 19 -67t51 -24q29 0 46 15.5t39 57.5zM611 358q0 42 -19 67t-52 25q-28 0 -44.5 -15.5t-39.5 -58.5l-25 -47l25 -48q22 -42 39 -57.5t45 -15.5q33 0 52 24.5t19 66.5v59z" />
    <glyph glyph-name="integral" unicode="&#x222b;" horiz-adv-x="342" 
d="M64 4q25 0 38.5 13.5t13.5 39.5v467q0 71 37.5 107.5t110.5 36.5h59v-103h-44q-25 0 -38.5 -13.5t-13.5 -39.5v-467q0 -144 -148 -144h-60v103h45z" />
    <glyph glyph-name="approxequal" unicode="&#x2248;" horiz-adv-x="490" 
d="M299 363q-22 5 -51 14q-32 9 -52.5 13.5t-44.5 4.5q-39 0 -100 -25v107q58 24 100 24q24 0 46.5 -5t51.5 -14q32 -9 52.5 -13.5t43.5 -4.5q40 0 92 21v-106q-48 -21 -92 -21q-24 0 -46 5zM299 166q-22 5 -51 14q-32 9 -52.5 13.5t-44.5 4.5q-39 0 -100 -25v107
q58 24 100 24q24 0 46.5 -5t51.5 -14q32 -9 52.5 -13.5t43.5 -4.5q40 0 92 21v-106q-48 -21 -92 -21q-24 0 -46 5z" />
    <glyph glyph-name="notequal" unicode="&#x2260;" horiz-adv-x="490" 
d="M322 388l-44 -120h159v-107h-199l-45 -119h-106v16l39 103h-74v107h114l45 120h-159v107h199l45 119h105v-16l-39 -103h75v-107h-115z" />
    <glyph glyph-name="lessequal" unicode="&#x2264;" horiz-adv-x="490" 
d="M434 451l-258 -90l258 -90v-100h-16l-369 126v128l369 126h16v-100zM49 113h385v-104h-385v104z" />
    <glyph glyph-name="greaterequal" unicode="&#x2265;" horiz-adv-x="490" 
d="M441 425v-128l-369 -126h-16v100l258 90l-258 90v100h16zM56 113h385v-104h-385v104z" />
    <glyph glyph-name="uni2460" unicode="&#x2460;" horiz-adv-x="682" 
d="M504.5 634q70.5 -35 109 -98.5t38.5 -146.5v-122q0 -83 -39 -146.5t-109.5 -98.5t-162.5 -35q-93 0 -163.5 35t-109 98.5t-38.5 146.5v122q0 83 39 146.5t109.5 98.5t162.5 35q93 0 163.5 -35zM562 385q0 95 -58 147t-163 52q-104 0 -162.5 -52.5t-58.5 -146.5v-115
q0 -94 58 -146t163 -52q102 0 160 50h-297v88h109v214q-19 -6 -41 -6h-68v89h73q36 0 36 28h98v-325h93v-86q58 52 58 146v115z" />
    <glyph glyph-name="uni2461" unicode="&#x2461;" horiz-adv-x="682" 
d="M177.5 22q-70.5 35 -109 98.5t-38.5 146.5v122q0 83 39 146.5t109.5 98.5t162.5 35q93 0 163.5 -35t109 -98.5t38.5 -146.5v-122q0 -83 -39 -146.5t-109.5 -98.5t-162.5 -35q-93 0 -163.5 35zM503.5 124q58.5 52 58.5 146v115q0 95 -58 147t-163 52q-104 0 -162.5 -52.5
t-58.5 -146.5v-115q0 -94 58 -146t163 -52q104 0 162.5 52zM314 318q38 40 51.5 59t13.5 34v7q0 17 -11.5 27t-30.5 10q-21 0 -32.5 -10t-11.5 -27v-14h-94v17q0 59 36.5 91t103.5 32t101.5 -29.5t34.5 -87.5v-7q0 -34 -18 -67t-61 -78l-62 -65h150v-88h-274v88z" />
    <glyph glyph-name="uni2462" unicode="&#x2462;" horiz-adv-x="682" 
d="M177.5 22q-70.5 35 -109 98.5t-38.5 146.5v122q0 83 39 146.5t109.5 98.5t162.5 35q93 0 163.5 -35t109 -98.5t38.5 -146.5v-122q0 -83 -39 -146.5t-109.5 -98.5t-162.5 -35q-93 0 -163.5 35zM503.5 124q58.5 52 58.5 146v115q0 95 -58 147t-163 52q-104 0 -162.5 -52.5
t-58.5 -146.5v-115q0 -94 58 -146t163 -52q104 0 162.5 52zM234.5 146.5q-39.5 32.5 -39.5 87.5v18h95v-11q0 -17 13.5 -27.5t35.5 -10.5q23 0 35.5 10.5t12.5 29.5v21q0 36 -55 36h-68v59l92 88h-149v89h266v-89l-71 -69l7 -2q39 -10 56.5 -34t17.5 -65v-42q0 -55 -39 -88
t-104 -33q-66 0 -105.5 32.5z" />
    <glyph glyph-name="uni2463" unicode="&#x2463;" horiz-adv-x="682" 
d="M177.5 22q-70.5 35 -109 98.5t-38.5 146.5v122q0 83 39 146.5t109.5 98.5t162.5 35q93 0 163.5 -35t109 -98.5t38.5 -146.5v-122q0 -83 -39 -146.5t-109.5 -98.5t-162.5 -35q-93 0 -163.5 35zM503.5 124q58.5 52 58.5 146v115q0 95 -58 147t-163 52q-104 0 -162.5 -52.5
t-58.5 -146.5v-115q0 -94 58 -146t163 -52q104 0 162.5 52zM184 200v88q36 104 46 248h96v-14q-10 -134 -41 -234h76v177h93v-177h43v-88h-43v-78h-93v78h-177z" />
    <glyph glyph-name="uni2464" unicode="&#x2464;" horiz-adv-x="682" 
d="M177.5 22q-70.5 35 -109 98.5t-38.5 146.5v122q0 83 39 146.5t109.5 98.5t162.5 35q93 0 163.5 -35t109 -98.5t38.5 -146.5v-122q0 -83 -39 -146.5t-109.5 -98.5t-162.5 -35q-93 0 -163.5 35zM503.5 124q58.5 52 58.5 146v115q0 95 -58 147t-163 52q-104 0 -162.5 -52.5
t-58.5 -146.5v-115q0 -94 58 -146t163 -52q104 0 162.5 52zM237.5 147.5q-37.5 33.5 -37.5 92.5v6h94v-6q0 -37 46 -37q22 0 34 10t12 29v25q0 18 -13 28.5t-35 10.5q-16 0 -27 -5t-15 -14h-95l14 249h248v-89h-165l-4 -71q29 17 71 17q56 0 86.5 -30.5t30.5 -86.5v-36
q0 -61 -36.5 -93.5t-104.5 -32.5q-66 0 -103.5 33.5z" />
    <glyph glyph-name="uni2465" unicode="&#x2465;" horiz-adv-x="682" 
d="M177.5 22q-70.5 35 -109 98.5t-38.5 146.5v122q0 83 39 146.5t109.5 98.5t162.5 35q93 0 163.5 -35t109 -98.5t38.5 -146.5v-122q0 -83 -39 -146.5t-109.5 -98.5t-162.5 -35q-93 0 -163.5 35zM503.5 124q58.5 52 58.5 146v115q0 95 -58 147t-163 52q-104 0 -162.5 -52.5
t-58.5 -146.5v-115q0 -94 58 -146t163 -52q104 0 162.5 52zM237.5 148.5q-38.5 34.5 -38.5 93.5v170q0 61 38.5 96.5t104.5 35.5q68 0 104.5 -32t36.5 -90v-6h-98v6q0 17 -11.5 26.5t-31.5 9.5q-21 0 -32.5 -11t-11.5 -31v-43q28 17 63 17q55 0 88.5 -31t33.5 -82v-41
q0 -58 -37.5 -90t-103.5 -32t-104.5 34.5zM373.5 209.5q11.5 10.5 11.5 27.5v30q0 17 -11.5 26.5t-32.5 9.5q-26 0 -43 -17v-47q0 -18 12 -29t32 -11t31.5 10.5z" />
    <glyph glyph-name="uni2466" unicode="&#x2466;" horiz-adv-x="682" 
d="M177.5 22q-70.5 35 -109 98.5t-38.5 146.5v122q0 83 39 146.5t109.5 98.5t162.5 35q93 0 163.5 -35t109 -98.5t38.5 -146.5v-122q0 -83 -39 -146.5t-109.5 -98.5t-162.5 -35q-93 0 -163.5 35zM503.5 124q58.5 52 58.5 146v115q0 95 -58 147t-163 52q-104 0 -162.5 -52.5
t-58.5 -146.5v-115q0 -94 58 -146t163 -52q104 0 162.5 52zM300.5 287q30.5 79 86.5 160h-188v88h285v-88q-53 -79 -83.5 -159t-30.5 -142v-24h-100v24q0 62 30.5 141z" />
    <glyph glyph-name="uni2467" unicode="&#x2467;" horiz-adv-x="682" 
d="M177.5 22q-70.5 35 -109 98.5t-38.5 146.5v122q0 83 39 146.5t109.5 98.5t162.5 35q93 0 163.5 -35t109 -98.5t38.5 -146.5v-122q0 -83 -39 -146.5t-109.5 -98.5t-162.5 -35q-93 0 -163.5 35zM503.5 124q58.5 52 58.5 146v115q0 95 -58 147t-163 52q-104 0 -162.5 -52.5
t-58.5 -146.5v-115q0 -94 58 -146t163 -52q104 0 162.5 52zM236.5 143.5q-37.5 29.5 -37.5 82.5v30q0 25 13 45t37 34q-44 27 -44 76v30q0 47 37 75t99 28t99 -28t37 -75v-30q0 -49 -44 -76q24 -13 36.5 -33.5t12.5 -45.5v-30q0 -52 -37.5 -82t-103.5 -30q-67 0 -104.5 29.5
zM374.5 384q11.5 10 11.5 28v14q0 18 -12 28t-33 10q-22 0 -34 -10t-12 -28v-14q0 -18 12 -28t34 -10t33.5 10zM374.5 204.5q12.5 10.5 12.5 29.5v18q0 18 -12.5 28.5t-33.5 10.5q-22 0 -34.5 -10.5t-12.5 -28.5v-18q0 -18 12.5 -29t34.5 -11q21 0 33.5 10.5z" />
    <glyph glyph-name="uni2468" unicode="&#x2468;" horiz-adv-x="682" 
d="M177.5 22q-70.5 35 -109 98.5t-38.5 146.5v122q0 83 39 146.5t109.5 98.5t162.5 35q93 0 163.5 -35t109 -98.5t38.5 -146.5v-122q0 -83 -39 -146.5t-109.5 -98.5t-162.5 -35q-93 0 -163.5 35zM503.5 124.5q58.5 52.5 58.5 146.5v115q0 94 -58 146t-163 52
q-104 0 -162.5 -52t-58.5 -146v-115q0 -95 58 -147t163 -52q104 0 162.5 52.5zM235.5 144q-36.5 32 -36.5 90v6h98v-6q0 -17 11.5 -26.5t31.5 -9.5q21 0 32.5 11t11.5 31v43q-28 -17 -63 -17q-55 0 -88.5 31t-33.5 82v41q0 58 37.5 90t103.5 32t104.5 -34.5t38.5 -93.5v-170
q0 -61 -38.5 -96.5t-104.5 -35.5q-68 0 -104.5 32zM384 370v47q0 18 -12 29t-32 11t-31.5 -10.5t-11.5 -27.5v-30q0 -17 11.5 -26.5t32.5 -9.5q26 0 43 17z" />
    <glyph glyph-name="uni24EA" unicode="&#x24ea;" horiz-adv-x="682" 
d="M177.5 22q-70.5 35 -109 98.5t-38.5 146.5v122q0 83 39 146.5t109.5 98.5t162.5 35q93 0 163.5 -35t109 -98.5t38.5 -146.5v-122q0 -83 -39 -146.5t-109.5 -98.5t-162.5 -35q-93 0 -163.5 35zM503.5 124q58.5 52 58.5 146v115q0 95 -58 147t-163 52q-104 0 -162.5 -52.5
t-58.5 -146.5v-115q0 -94 58 -146t163 -52q104 0 162.5 52zM239 149q-39 35 -39 92v175q0 58 38.5 92.5t103.5 34.5q64 0 102.5 -34.5t38.5 -92.5v-175q0 -58 -38.5 -92.5t-102.5 -34.5t-103 35zM374 214q11 12 11 35v159q0 23 -11 35t-32 12t-32.5 -12.5t-11.5 -34.5v-159
q0 -22 11.5 -34.5t32.5 -12.5t32 12z" />
    <glyph glyph-name="uni24FF" unicode="&#x24ff;" horiz-adv-x="682" 
d="M239 149q-39 35 -39 92v175q0 58 38.5 92.5t103.5 34.5q64 0 102.5 -34.5t38.5 -92.5v-175q0 -58 -38.5 -92.5t-102.5 -34.5t-103 35zM374 214q11 12 11 35v159q0 23 -11 35t-32 12t-32.5 -12.5t-11.5 -34.5v-159q0 -22 11.5 -34.5t32.5 -12.5t32 12zM503.5 22
q70.5 35 109.5 98.5t39 146.5v122q0 83 -38.5 146.5t-109 98.5t-163.5 35q-92 0 -162.5 -35t-109.5 -98.5t-39 -146.5v-122q0 -83 38.5 -146.5t109 -98.5t163.5 -35q92 0 162.5 35z" />
    </font>
</defs>
</svg>
